ML
     
  Уважаемый Гость!
Вы можете поддержать проект и зарегистрироваться у наших партнеров - онлайн-стратегия MyLands. При регистрации в игре Вы получите код, который сможете активировать после регистрации на pirat.ca и получить 1000 дублонов.

Ваш код:
2a3da67fd641d69eeebb7cb965232435a70eaa24
 
     

Гаджьо (Сергей Пархоменко (Seryoga)) [2014 г., драма, SATRip]

Ответить на тему
 
Автор
Сообщение

Пост 16-Сен-2014 23:16

[Q] 

UcrusPazzo

Гаджьо
-Производство: Украина, ООО "Гарлем"
Жанр: драма
Год выпуска: 2014 г.
Продолжительность: 00:39:47
Российская премьера: 23 августа 2014 (Интер, Украина)-Режиссер: Сергей Пархоменко (Seryoga)
Сценарист: Серёга
Оператор: Алексей Хорошко
Композитор: Серёга-В ролях: Сергей Пархоменко (Seryoga), Мишель Андраде, Богдан Ермоленко, Василий Набаранчук, Олег Аджикаев, Антон Чилиби, Ольга Яцкевич, Артур Арамян, Дмитрий Титенюк, Анна Цуканова, Инна Мазуренко, Алексей Нестеров-Описание: "Гаджьо" по-цыгански означает "чужой". Именно это название выбрал для своего фильма популярный рэп-исполнитель Серёга (Сергей Пархоменко), предстающий здесь одновременно в нескольких амплуа - автор сценария, режиссер, композитор и исполнитель главной роли.
По словам автора, "...это фильм о многом. Это кино о большой и чистой любви, но не только... Это фильм о сложности человеческого выбора. Это фильм о том, как неотвратимы последствия наших поступков. Это фильм о том, как сложно сделать шаг в неизвестное. Это фильм о том, как невероятно просто и сложно одновременно разом все поменять в своей жизни. Это фильм о том, как непросто, но необходимо довериться какой-то родной душе. Это фильм о жизни, но и о смерти тоже..."-Качество видео: SATRip
Контейнер: AVI
Видео кодек: DivX
Аудио кодек: MP3
Видео: 720x304 (2.37:1), 25 fps, DivX Codec 6.8.5/6.9.1 ~1848 kbps avg, 0.34 bit/pixel
Аудио: 48 kHz, MPEG Layer 3, 2 ch, ~192.00 kbps avg
Cубтитры: отсутствуют
Общее
Формат : AVI
Формат/Информация : Audio Video Interleave
Размер файла : 583 Мбайт
Продолжительность : 39 м.
Общий поток : 2050 Кбит/сек
Библиотека кодирования : Boilsoft AVI tool build 1/release
Видео
Идентификатор : 0
Формат : MPEG-4 Visual
Параметр BVOP формата : 1
Параметр QPel формата : Нет
Параметр GMC формата : Без точки перехода
Параметр матрицы формата : Default (H.263)
Режим смешивания : Сжатый битовый поток
Идентификатор кодека : DX50
Идентификатор кодека/Подсказка : DivX 5
Продолжительность : 39 м.
Битрейт : 1848 Кбит/сек
Ширина : 720 пикселей
Высота : 304 пикселя
Соотношение сторон : 2,35:1
Частота кадров : 25,000 кадров/сек
Цветовое пространство : YUV
Субдискретизация насыщенности : 4:2:0
Битовая глубина : 8 бит
Тип развёртки : Прогрессивная
Метод сжатия : С потерями
Бит/(Пиксели*Кадры) : 0.338
Размер потока : 526 Мбайт (90%)
Библиотека кодирования : DivX 6.8.5 (UTC 2009-08-20)
Аудио
Идентификатор : 1
Формат : MPEG Audio
Версия формата : Version 1
Профиль формата : Layer 3
Режим : Joint stereo
Идентификатор кодека : 55
Идентификатор кодека/Подсказка : MP3
Продолжительность : 39 м.
Вид битрейта : Постоянный
Битрейт : 192 Кбит/сек
Каналы : 2 канала
Частота : 48,0 КГц
Метод сжатия : С потерями
Размер потока : 54,6 Мбайт (9%)
Выравнивание : Разделение по промежуткам
Продолжительность промежутка : 40 мс. (1,00 видеокадр)
Время предзагрузки промежутка : 500 мс.
Download / Скачать

Хотите скачать бесплатно? Зарегистрируйтесь на сайте (ссылка на регистрацию). Pirat.ca - самый быстрый торрент трекер в рунете!

Как скачивать  ·   Что такое торрент  ·   Рейтинг и ограничения

kisu

Гроза морей

Пост 17-Сен-2014 08:21 (спустя 9 часов)

[Q] 

прям жутко филосовский фильм!мне такое кино не нужно!!!
[Профиль]  [ЛС] 

Пост 17-Сен-2014 08:31 (спустя 10 минут)

Топик был перенесен из форума Наше кино (Трюм) в форум Новинки (HD|DVD|BD| TV|SAT|PDTV| - Rips)
ara1205
 

razerface

Флибустьер

2399

Пост 17-Сен-2014 09:53 (спустя 1 час 32 минуты)

[Q] 

Как по мне - так в топку

_________________
Я — личность творческая, хочу творю, хочу вытворяю!
[Профиль]  [ЛС] 

Alexlogin

Гроза морей

105

Пост 17-Сен-2014 13:01 (спустя 3 часа)

[Q] 

Ну попробуем посмотрим что это за кино
[Профиль]  [ЛС] 

polozm

Легенда

Пост 17-Сен-2014 13:26 (спустя 25 минут)

[Q] 

очкую я bm ct

_________________
mac mini -2.0 GHz Intel Core i7/ 8 GB DDR3. /Intel HD 3000(512mb)OS X 10.9 Mavericks
[Профиль]  [ЛС] 

bolin

Флибустьер

Пост 17-Сен-2014 14:10 (спустя 43 минуты)

[Q] 

Посмотрим лучше чем смотреть бестолковые трансформеры
[Профиль]  [ЛС] 

UcrusPazzo ®

7670

Пост 17-Сен-2014 14:25 (спустя 15 минут)

[Q] 

581263очкую я bm ct
Не боись, он не страшный

_________________
[Профиль]  [ЛС] 

mazur1981

Шкипер

Пост 17-Сен-2014 15:13 (спустя 47 минут)

[Q] 

Описание: 40 мин про Гадьжо который на протяжении всего фильма был под ганжем и молчал. А когда заговорил то уже было поздно. Конец фильма. Шлак.
[Профиль]  [ЛС] 

Centimo

Лоцман

Пост 18-Сен-2014 13:50 (спустя 22 часа)

[Q] 

В топку фильмы от рэперов. Вместе с самими рэперами.
[Профиль]  [ЛС] 

Hausser

Гроза морей

Пост 18-Сен-2014 16:06 (спустя 2 часа 15 минут)

[Q] 

После прочтения описания качать фильм я чё-то очкую)))
[Профиль]  [ЛС] 

zlotosalien

Флибустьер

Пост 18-Сен-2014 18:26 (спустя 2 часа 19 минут)

[Q] 

581660В топку фильмы от рэперов. Вместе с самими рэперами.
Вообще то у Айс Кьюба, Снуп Дога, Тупака и тд... много отличных фильмов! Не надо всех под одну гребенку грести!
[Профиль]  [ЛС] 

ruskirus

Штурман

Пост 18-Сен-2014 18:46 (спустя 20 минут)

[Q] 

так всё же... г вно или смотреть? Ну ты юморист...
[Профиль]  [ЛС] 

erda

Морской Волк

Пост 24-Сен-2014 15:51 (спустя 5 дней)

[Q] 

качать можно, смотреть нельзя. категорически!
[Профиль]  [ЛС] 

лысый 777

Морской Волк

Пост 23-Окт-2014 07:42 (спустя 28 дней)

[Q] 

да....ну и фильм (((
[Профиль]  [ЛС] 

Пост 24-Окт-2014 19:38 (спустя 1 день 11 часов)

Топик был перенесен из форума Новинки (HD|DVD|BD| TV|SAT|PDTV| - Rips) в форум Российские фильмы
LPPI
 
Показать сообщения:    
Ответить на тему

Текущее время: Сегодня 01:15

Часовой пояс: GMT + 4



Вы не можете начинать темы
Вы не можете отвечать на сообщения
Вы не можете редактировать свои сообщения
Вы не можете удалять свои сообщения
Вы не можете голосовать в опросах
Вы не можете прикреплять файлы к сообщениям
Вы не можете скачивать файлы

▼ Вниз