ML
     
  Уважаемый Гость!
Вы можете поддержать проект и зарегистрироваться у наших партнеров - онлайн-стратегия MyLands. При регистрации в игре Вы получите код, который сможете активировать после регистрации на pirat.ca и получить 1000 дублонов.

Ваш код:
21acd5966619d49ad0b90c3305467b4646cc11a8
 
     

Везёт же людям (Александр Полынников) [2014 г., комедия, HDTVRip]

Ответить на тему
 
Автор
Сообщение

Пост 17-Сен-2014 15:44

[Q] 

ara1205

-Везёт же людям-- Производство: Украина
Год выпуска: 2014 г.
Жанр: комедия
Продолжительность: 01:29:55
Перевод: Не требуется-Режиссер: Александр Полынников-В ролях: Анна Щапова, Сергей Деньга, Екатерина Порубель, Нонна Гришаева, Ольга Мельничук (II), Николай Шкуратовский, Сергей Юрков, Леонид Анисимов, Татьяна Маркова, Ирина Токарчук, Игорь Тильтиков, Карина Шрагина, Алина Шелудченко, Сергей Тодорич, Вадим Садковский, Оксана Кошевая-Описание: Соне с утра не везёт. Она чуть не попадает под машину Кости, которому также не везёт в этот день. По ошибке она уносит его папку с документами и ставит под угрозу срыва подписание важного контракта. На этом проблемы молодых людей не заканчиваются. От Кости уходит невеста, а Соню увольняют из театра. И она уже готова отказаться от мечты стать актрисой. Удастся ли героям найти своё счастье в этом году, если до Нового Года остаётся всего один день?- -Качество видео: HDTVRip
Контейнер: AVI
Видео кодек: XviD
Аудио кодек: AC3
Видео: 720x400 (1.80:1), 25 fps, XviD build 50 ~1714 kbps avg, 0.238 bit/pixel
Аудио: 48 kHz, AC3 Dolby Digital, 3/2 (L,C,R,l,r) + LFE ch, ~448 kbps
Cубтитры: отсутствуют-
Общее
Полное имя : C:\Users\Ромик\Pictures\Везёт же людям\Vezet.zhe.lyudyam.2014.XviD.HDTVRip.avi
Формат : AVI
Формат/Информация : Audio Video Interleave
Размер файла : 1,36 Гбайт
Продолжительность : 1 ч. 29 м.
Общий поток : 2172 Кбит/сек
Название фильма : Vezet.zhe.lyudyam.2014.XviD.HDTVRip
Режиссёр : @dvokat
Программа кодирования : VirtualDubMod 1.5.10.3 | www.virtualdub-fr.org || (build 2550/release)
Видео
Идентификатор : 0
Формат : MPEG-4 Visual
Профиль формата : Advanced [email protected]
Параметр BVOP формата : 4
Параметр QPel формата : Нет
Параметр GMC формата : Без точки перехода
Параметр матрицы формата : Default (MPEG)
Идентификатор кодека : XVID
Идентификатор кодека/Подсказка : XviD
Продолжительность : 1 ч. 29 м.
Битрейт : 1714 Кбит/сек
Ширина : 720 пикселей
Высота : 400 пикселей
Соотношение сторон : 16:9
Частота кадров : 25,000 кадров/сек
Цветовое пространство : YUV
Субдискретизация насыщенности : 4:2:0
Битовая глубина : 8 бит
Тип развёртки : Прогрессивная
Метод сжатия : С потерями
Бит/(Пиксели*Кадры) : 0.238
Размер потока : 1,08 Гбайт (79%)
Библиотека кодирования : XviD 1.2.1 (UTC 2008-12-04)
Аудио
Идентификатор : 1
Формат : AC-3
Формат/Информация : Audio Coding 3
Расширение режима : CM (complete main)
Параметр Endianness формата : Big
Идентификатор кодека : 2000
Продолжительность : 1 ч. 29 м.
Вид битрейта : Постоянный
Битрейт : 448 Кбит/сек
Каналы : 6 каналов
Расположение каналов : Front: L C R, Side: L R, LFE
Частота : 48,0 КГц
Битовая глубина : 16 бит
Метод сжатия : С потерями
Размер потока : 288 Мбайт (21%)
Выравнивание : Разделение по промежуткам
Продолжительность промежутка : 40 мс. (1,00 видеокадр)
Время предзагрузки промежутка : 500 мс.
-
-
-
Download / Скачать

Хотите скачать бесплатно? Зарегистрируйтесь на сайте (ссылка на регистрацию). Pirat.ca - самый быстрый торрент трекер в рунете!

Как скачивать  ·   Что такое торрент  ·   Рейтинг и ограничения

Alexlogin

Гроза морей

105

Пост 17-Сен-2014 15:58 (спустя 13 минут)

[Q] 

Спасибо качаем смотрим
[Профиль]  [ЛС] 

Бомс

Морской Волк

Пост 17-Сен-2014 17:35 (спустя 1 час 36 минут)

[Q] 

be Не буду качать!! ))Новый год еще не скоро!!! Ощущения не те будут как в ожидании приближения светлого праздника. А сейчас.. ))) не.. Не то....

_________________
Всё будет зашибись! Только не стоит этому мешать!!!
[Профиль]  [ЛС] 

Супермен

Штурман

Пост 17-Сен-2014 21:22 (спустя 3 часа)

[Q] 

Не буду качать. Потому что Украина

_________________
[Профиль]  [ЛС] 

AleksandrB.23101968

Штурман

Пост 18-Сен-2014 08:45 (спустя 11 часов)

[Q] 

Качаем,смотрим, присоединяемся к раздаче.

_________________
[Профиль]  [ЛС] 

Aleha6346

Морской Волк

429

Пост 18-Сен-2014 10:45 (спустя 2 часа)

[Q] 

581463Не буду качать. Потому что Украина
Какая разница, какая страна? Или вы думаете, что пара политиков - это вся украина? Сам лично ничего ни против кого не имею! А данное высказывание можно приравнять к дискриминационному, считаю, что на нашем форуме это неприемлемо! ИМХО
[Профиль]  [ЛС] 

m__a__l

Лоцман

Пост 18-Сен-2014 19:14 (спустя 8 часов)

[Q] 

581609
581463Не буду качать. Потому что Украина
Какая разница, какая страна? Или вы думаете, что пара политиков - это вся украина? Сам лично ничего ни против кого не имею! А данное высказывание можно приравнять к дискриминационному, считаю, что на нашем форуме это неприемлемо! ИМХО
разница есть! т.к. есть украинцы и есть укропы, так, вот конченые укропы убивают мирных жителей и способствуют этому, а украинцы тихо молчат в сторонке.
[Профиль]  [ЛС] 

ro2s

Лоцман

Пост 18-Сен-2014 21:58 (спустя 2 часа 43 минуты)

[Q] 

ХЗ!!! УКРАИНА!!! :59: Пусть ПАРАШЕНКО И СМОТРИТ ЭТО УГ!!!! WTF!
[Профиль]  [ЛС] 

ara1205 ®

69741

Пост 18-Сен-2014 22:39 (спустя 40 минут)

[Q] 

Господа пираты, я очень "рад" что вы у нас все такие политически подкованные, но желающих поболтать о политики с удовольствием выслушают тут >> О политике (форум)Если кто ещё, будет превращать данную тему "Музыкальной комедии" в политический клуб, то такой политикан будет наказан!
[Профиль]  [ЛС] 

pkurg

Штурман

Пост 20-Сен-2014 14:44 (спустя 1 день 16 часов)

[Q] 

!COOL! Качаем,смотрим, присоединяемся к раздаче.
[Профиль]  [ЛС] 

woger68

Корсар

Пост 20-Сен-2014 16:21 (спустя 1 час 36 минут)

[Q] 

Качаем,смотрим!
Спасибо за труды! Лови бочку
[Профиль]  [ЛС] 

ces

Лоцман

Пост 20-Сен-2014 17:59 (спустя 1 час 38 минут)

[Q] 

581811 ХЗ!!! УКРАИНА!!! :59: Пусть ПАРАШЕНКО И СМОТРИТ ЭТО УГ!!!! WTF!
Алигофрены, успокойтесь.
[Профиль]  [ЛС] 

evilsan39

Корсар

1232

Пост 20-Сен-2014 18:43 (спустя 44 минуты)

[Q] 

Причем здесь политика

_________________

[Профиль]  [ЛС] 

egokdm

Гроза морей

1362

Пост 20-Сен-2014 20:17 (спустя 1 час 33 минуты)

[Q] 

aa Спасибо!!!
[Профиль]  [ЛС] 

salten

Штурман

Пост 22-Сен-2014 01:17 (спустя 1 день 5 часов)

[Q] 

женская лабуда ёп даже смотреть не буду может чьей то жене понравится На любителя
[Профиль]  [ЛС] 

svat74

Корсар

Пост 22-Сен-2014 10:29 (спустя 9 часов)

[Q] 

я тоже проти хохлов я там был
!ara1205 писал(а):

Я может не по русски предупреждал? Это тема "Музыкальной комедии", за политический флуд, на неделю запрет оставлять комменты.
[Профиль]  [ЛС] 

duma_74

Штурман

Пост 28-Сен-2014 13:58 (спустя 6 дней)

[Q] 

Бабское кино, хватило на 15 мин На любителя
[Профиль]  [ЛС] 

hohol541

Корсар

Пост 28-Окт-2014 15:26 (спустя 1 месяц)

[Q] 

Мыло голимое.
[Профиль]  [ЛС] 

Пост 28-Окт-2014 22:14 (спустя 6 часов)

Топик был перенесен из форума Новинки (HD|DVD|BD| TV|SAT|PDTV| - Rips) в форум Российские фильмы
LPPI
 
Показать сообщения:    
Ответить на тему

Текущее время: Сегодня 23:18

Часовой пояс: GMT + 4



Вы не можете начинать темы
Вы не можете отвечать на сообщения
Вы не можете редактировать свои сообщения
Вы не можете удалять свои сообщения
Вы не можете голосовать в опросах
Вы не можете прикреплять файлы к сообщениям
Вы не можете скачивать файлы

▼ Вниз