ML
     
  Уважаемый Гость!
Вы можете поддержать проект и зарегистрироваться у наших партнеров - онлайн-стратегия MyLands. При регистрации в игре Вы получите код, который сможете активировать после регистрации на pirat.ca и получить 1000 дублонов.

Ваш код:
74c28610d77aaac24ba694c4128f3b9b46b04220
 
     

Не в парнях счастье (Кира Ангелина) [2014 г., мелодрама, SATRip]

Ответить на тему
 
Автор
Сообщение

Пост 17-Сен-2014 21:17

[Q] 

ara1205

-Не в парнях счастье-- Производство: Россия
Год выпуска: 2014 г.
Жанр: мелодрама
Продолжительность: 01:32:49-Режиссер: Кира Ангелина-В ролях: Люба Баханкова, Марина Могилевская, Кирилл Плетнёв, Агата Муцениеце, Михаил Гаврилов, Леся Кудряшова, Наталья Панюшева-Описание: Жизнь не балует Диану — вечные семейные ссоры, безденежье и однообразные студенческие будни. Но однажды в ее жизнь приходит чудо — она встречает Его. Сергей прекрасен, как герой ее снов, и девушка теряет голову от любви.
Однако нежданное счастье внезапно обрывается: накануне свадьбы Диана застает любимого в объятиях лучшей подруги. Девушка в ужасе, она не знает, как простить предательство и как жить дальше.
В этот переломный момент ей на помощь приходит мать Сергея, Елена — успешная, независимая бизнес-леди. Следуя ее наставлениям, героиня решает порвать с прошлыми наивными мечтами и стать расчетливой стервой, идущей к своей цели и ломающей все преграды на своем пути…- -Качество видео: SATRip
Контейнер: AVI
Видео кодек: DivX
Аудио кодек: MP3
Видео: 704x368, 25 fps, 2006 kbps avg, 0.31 bit/pixel
Аудио: 48 kHz, MPEG Layer 3, 2 ch, ~128.00 kbps avg
Cубтитры: отсутствуют-
Общее
Полное имя : C:\Users\Ромик\Pictures\Не в парнях счастье\Ne.v.parniah.schastie.avi
Формат : AVI
Формат/Информация : Audio Video Interleave
Размер файла : 1,39 Гбайт
Продолжительность : 1 ч. 32 м.
Общий поток : 2144 Кбит/сек
Программа кодирования : VirtualDubMod 1.5.10.2 (build 2540/release)
Библиотека кодирования : VirtualDub build 29808/release
Видео
Идентификатор : 0
Формат : MPEG-4 Visual
Параметр BVOP формата : Нет
Параметр QPel формата : Нет
Параметр GMC формата : Без точки перехода
Параметр матрицы формата : Default (H.263)
Идентификатор кодека : DX50
Идентификатор кодека/Подсказка : DivX 5
Продолжительность : 1 ч. 32 м.
Битрейт : 2006 Кбит/сек
Ширина : 704 пикселя
Высота : 368 пикселей
Соотношение сторон : 1,913
Частота кадров : 25,000 кадров/сек
Цветовое пространство : YUV
Субдискретизация насыщенности : 4:2:0
Битовая глубина : 8 бит
Тип развёртки : Прогрессивная
Метод сжатия : С потерями
Бит/(Пиксели*Кадры) : 0.310
Размер потока : 1,30 Гбайт (94%)
Библиотека кодирования : DivX 6.8.5 (UTC 2009-08-20)
Аудио
Идентификатор : 1
Формат : MPEG Audio
Версия формата : Version 1
Профиль формата : Layer 3
Режим : Joint stereo
Идентификатор кодека : 55
Идентификатор кодека/Подсказка : MP3
Продолжительность : 1 ч. 32 м.
Вид битрейта : Постоянный
Битрейт : 128 Кбит/сек
Каналы : 2 канала
Частота : 48,0 КГц
Метод сжатия : С потерями
Размер потока : 85,0 Мбайт (6%)
Выравнивание : Соединение по промежуткам
Продолжительность промежутка : 40 мс. (1,00 видеокадр)
Время предзагрузки промежутка : 504 мс.
-
-
-
Download / Скачать

Хотите скачать бесплатно? Зарегистрируйтесь на сайте (ссылка на регистрацию). Pirat.ca - самый быстрый торрент трекер в рунете!

Как скачивать  ·   Что такое торрент  ·   Рейтинг и ограничения

Alexlogin

Гроза морей

105

Пост 17-Сен-2014 21:45 (спустя 28 минут)

[Q] 

Спасибо автору жена посмотрит
[Профиль]  [ЛС] 
Показать сообщения:    
Ответить на тему

Текущее время: Сегодня 10:01

Часовой пояс: GMT + 4



Вы не можете начинать темы
Вы не можете отвечать на сообщения
Вы не можете редактировать свои сообщения
Вы не можете удалять свои сообщения
Вы не можете голосовать в опросах
Вы не можете прикреплять файлы к сообщениям
Вы не можете скачивать файлы

▼ Вниз