ML
     
  Уважаемый Гость!
Вы можете поддержать проект и зарегистрироваться у наших партнеров - онлайн-стратегия MyLands. При регистрации в игре Вы получите код, который сможете активировать после регистрации на pirat.ca и получить 1000 дублонов.

Ваш код:
bc31d8aef74c92e19ad67e34a8fa63c3b9b812fb
 
     

Весёлые ребята;) (Алексей Бобров) [2014 г., комедия, WEB-DL] [iTunes]

Ответить на тему
 
Автор
Сообщение

Пост 18-Сен-2014 21:26

[Q] 

ara1205

-Весёлые ребята;)-- Производство: Россия
Год выпуска: 2014 г.
Жанр: комедия
Продолжительность: 01:32:13-Режиссер: Алексей Бобров-В ролях: Иван Дорн, Катерина Шпица, София Каштанова, Алексей Шевченков, Евгений Тихомиров, Ола Кейру, Сергей Газаров, Татьяна Лютаева, Алена Новицкая, Наталья Щукина-Описание: Начинающий музыкант Костя Потехин, чтобы завоевать расположение красивой девушки, соглашается участвовать в музыкальном телевизионном конкурсе. Но участвовать нужно только со своей музыкальной группой, которой у него нет. За несколько дней ему предстоит собрать свою группу, найти надежных друзей и встретить настоящую любовь.- -Качество видео: WEB-DL
Контейнер: AVI
Видео кодек: XviD
Аудио кодек: AC3
Видео: 720x304, 24,000 fps, 1729 kbps avg, 0.329 bit/pixel
Аудио: 48 kHz, AC3 Dolby Digital, 3/2 (L,C,R,l,r) + LFE ch, ~384.00 kbps avg
Cубтитры: отсутствуют-
Общее
Полное имя : C:\Users\Ромик\Pictures\Весёлые ребята\Veselye.rebyata.2014.HDRip.XviD.1400MB.avi
Формат : AVI
Формат/Информация : Audio Video Interleave
Размер файла : 1,37 Гбайт
Продолжительность : 1 ч. 32 м.
Общий поток : 2122 Кбит/сек
Программа кодирования : VirtualDubMod 1.5.10.3 | www.virtualdub-fr.org || (build 2550/release)
Библиотека кодирования : VirtualDubMod build 2550/release
Видео
Идентификатор : 0
Формат : MPEG-4 Visual
Профиль формата : Advanced [email protected]
Параметр BVOP формата : 2
Параметр QPel формата : Нет
Параметр GMC формата : Без точки перехода
Параметр матрицы формата : Default (MPEG)
Идентификатор кодека : XVID
Идентификатор кодека/Подсказка : XviD
Продолжительность : 1 ч. 32 м.
Битрейт : 1729 Кбит/сек
Ширина : 720 пикселей
Высота : 304 пикселя
Соотношение сторон : 2,35:1
Частота кадров : 24,000 кадра/сек
Цветовое пространство : YUV
Субдискретизация насыщенности : 4:2:0
Битовая глубина : 8 бит
Тип развёртки : Прогрессивная
Метод сжатия : С потерями
Бит/(Пиксели*Кадры) : 0.329
Размер потока : 1,11 Гбайт (81%)
Библиотека кодирования : XviD 1.2.1 (UTC 2008-12-04)
Аудио
Идентификатор : 1
Формат : AC-3
Формат/Информация : Audio Coding 3
Расширение режима : CM (complete main)
Параметр Endianness формата : Big
Идентификатор кодека : 2000
Продолжительность : 1 ч. 32 м.
Вид битрейта : Постоянный
Битрейт : 384 Кбит/сек
Каналы : 6 каналов
Расположение каналов : Front: L C R, Side: L R, LFE
Частота : 48,0 КГц
Битовая глубина : 16 бит
Метод сжатия : С потерями
Размер потока : 253 Мбайт (18%)
Выравнивание : Разделение по промежуткам
Продолжительность промежутка : 42 мс. (1,00 видеокадр)
Время предзагрузки промежутка : 500 мс.
-
-
-
Download / Скачать

Хотите скачать бесплатно? Зарегистрируйтесь на сайте (ссылка на регистрацию). Pirat.ca - самый быстрый торрент трекер в рунете!

Как скачивать  ·   Что такое торрент  ·   Рейтинг и ограничения

Vintorezov REG 39

Легенда

176

Пост 18-Сен-2014 21:28 (спустя 1 минута)

[Q] 

НЕ плохая комедия Лови бочку
[Профиль]  [ЛС] 

Znoi

Флибустьер

1163

Пост 18-Сен-2014 21:45 (спустя 17 минут)

[Q] 

Спасибо!!! за релиз!!!
[Профиль]  [ЛС] 

chtv

Шкипер

Пост 18-Сен-2014 23:49 (спустя 2 часа 3 минуты)

[Q] 

581798НЕ плохая комедия Лови бочку
Ты, видать, запятую забыл поставить между "НЕ" и "плохая" =)
[Профиль]  [ЛС] 

Alexlogin

Гроза морей

105

Пост 19-Сен-2014 00:16 (спустя 27 минут)

[Q] 

Спасибо посмотрим
[Профиль]  [ЛС] 

Hausser

Гроза морей

Пост 19-Сен-2014 00:55 (спустя 38 минут)

[Q] 

Очередной высер нашего кинематографа, когда же эти великие режиссеры перестанут плодить фуфломицин?
[Профиль]  [ЛС] 

zlotosalien

Флибустьер

Пост 19-Сен-2014 03:26 (спустя 2 часа 30 минут)

[Q] 

Этот Дорн в музыке настоящее ДЕРЬМО, еще в кино полез!
[Профиль]  [ЛС] 

Бомс

Морской Волк

Пост 19-Сен-2014 13:07 (спустя 9 часов)

[Q] 

Не совсем понятно, а как эти будут бабки отбивать на этом шедевре? )) Разве что на телеспонсорах.. для продажи рекламного времяни. ) Но тогда по телеку будут рекламу впихивать через каждые пять минут. )

_________________
Всё будет зашибись! Только не стоит этому мешать!!!
[Профиль]  [ЛС] 

Танюха10988

Гроза морей

Пост 19-Сен-2014 13:14 (спустя 7 минут)

[Q] 

Смотрим спасибо
[Профиль]  [ЛС] 

RedHawk

Флибустьер

Пост 19-Сен-2014 13:51 (спустя 36 минут)

[Q] 

Опять очередной римейк шедевра. Жаль....
Но Раздающему респект! .
[Профиль]  [ЛС] 

bel12

Корсар

Пост 19-Сен-2014 15:47 (спустя 1 час 56 минут)

[Q] 

спасибо Пиратка рулит! !COOL!
[Профиль]  [ЛС] 

ягжин

Гроза морей

Пост 19-Сен-2014 16:01 (спустя 13 минут)

[Q] 

Спасибо! Спасибо!!! Автору респект!!!
[Профиль]  [ЛС] 

zvyagin_da

Пост 20-Сен-2014 01:51 (спустя 9 часов)

[Q] 

Смотрим спасибо
[Профиль]  [ЛС] 

egokdm

Гроза морей

1362

Пост 20-Сен-2014 20:20 (спустя 18 часов)

[Q] 

aa
[Профиль]  [ЛС] 

woger68

Корсар

Пост 21-Сен-2014 09:23 (спустя 13 часов)

[Q] 

Посмотрим заценим. Спасибо!!!
[Профиль]  [ЛС] 

erda

Морской Волк

Пост 19-Окт-2014 17:23 (спустя 28 дней)

[Q] 

фанаты у Дорна-певца есть, фанатов у Дорна-актера не будет. инфа 100%
раздающему спасибо, но
Трафик потрачен зря!
[Профиль]  [ЛС] 

Пост 20-Окт-2014 19:49 (спустя 1 день 2 часа)

Топик был перенесен из форума Новинки (HD|DVD|BD| TV|SAT|PDTV| - Rips) в форум Российские фильмы
LPPI
 

hohol541

Корсар

Пост 28-Окт-2014 15:31 (спустя 8 дней)

[Q] 

Попытки создать ремейк-предсказуемы.Отстой.
[Профиль]  [ЛС] 
Показать сообщения:    
Ответить на тему

Текущее время: Сегодня 12:01

Часовой пояс: GMT + 4



Вы не можете начинать темы
Вы не можете отвечать на сообщения
Вы не можете редактировать свои сообщения
Вы не можете удалять свои сообщения
Вы не можете голосовать в опросах
Вы не можете прикреплять файлы к сообщениям
Вы не можете скачивать файлы

▼ Вниз