ML
     
  Уважаемый Гость!
Вы можете поддержать проект и зарегистрироваться у наших партнеров - онлайн-стратегия MyLands. При регистрации в игре Вы получите код, который сможете активировать после регистрации на pirat.ca и получить 1000 дублонов.

Ваш код:
062e2babcc491faeb40d496cf9a498ac3df6cdd0
 
     

Мой любимый раздолбай (Александр Котт) [2011 г., Мелодрама, комедия, DVDRip]

Ответить на тему
 
Автор
Сообщение

Пост 18-Янв-2012 10:30

[Q] 

Znoi

Флибустьер

-Мой любимый раздолбай-- Год выпуска: 2011
Жанр: Мелодрама, комедия
Выпущено: Россия, Всемирные Русские Студи
Премьера (РФ): 21 сентября 2011
Продолжительность: 01:24:42
Перевод: Не требуется
Субтитры: отсутствуют--Режиссер: Александр Котт--В ролях: Алексей Чадов, Роман Шмаков, Екатерина Вилкова, Владимир Симонов, Вера Сотникова--Описание: Горе-пиарщик, ловелас и авантюрист Миша Воробьев — на пороге очередного зигзага судьбы, не сулящего ему ничего хорошего. Из солидной компании уволили, денег нет, а перспективы более чем туманные. Но к печальному статусу неудачника Миша привыкнуть не успевает: судьба в очередной раз преподносит неожиданный сюрприз в виде довольно необычного предложения от бывшего босса. Оказывается, у того есть сын Сережа — юноша не то, чтобы замкнутый и закомплексованный, но явно не отвечающий представлениям отца об образе «настоящего мужчины». Осознав всю тщетность своих попыток наставить сына «на путь истинный», Павел Петрович находит, как ему кажется, единственно верный выход из положения.-- --Источник/Качество: DVDRip
Формат: AVI
Видео кодек: XviD
Аудио кодек: AC3
Видео: XviD, 1853 Кбит/с, 720x304 пикс, 25.000 кадр/сек
Аудио: AC3, 2 ch, 448 Кбит/с, 48.0 КГц
General
Complete name : D:\Moy.Lyubimiy.Razdolbay.2011.XviD.DVDRip.[pirat.ca].avi
Format : AVI
Format/Info : Audio Video Interleave
File size : 1.37 GiB
Duration : 1h 24mn
Overall bit rate : 2 308 Kbps
Writing application : VirtualDubMod 1.5.10.2 (build 2540/release)
Writing library : VirtualDubMod build 2540/release
Video
ID : 0
Format : MPEG-4 Visual
Format profile : Advanced [email protected]
Format settings, BVOP : 1
Format settings, QPel : No
Format settings, GMC : No warppoints
Format settings, Matrix : Default (H.263)
Codec ID : XVID
Codec ID/Hint : XviD
Duration : 1h 24mn
Bit rate : 1 850 Kbps
Width : 720 pixels
Height : 304 pixels
Display aspect ratio : 2.35:1
Frame rate : 25.000 fps
Color space : YUV
Chroma subsampling : 4:2:0
Bit depth : 8 bits
Scan type : Progressive
Compression mode : Lossy
Bits/(Pixel*Frame) : 0.338
Stream size : 1.09 GiB (80%)
Writing library : XviD 1.2.1 (UTC 2008-12-04)
Audio
ID : 1
Format : AC-3
Format/Info : Audio Coding 3
Mode extension : CM (complete main)
Codec ID : 2000
Duration : 1h 24mn
Bit rate mode : Constant
Bit rate : 448 Kbps
Channel(s) : 2 channels
Channel positions : Front: L R
Sampling rate : 48.0 KHz
Bit depth : 16 bits
Compression mode : Lossy
Stream size : 271 MiB (19%)
Alignment : Split accross interleaves
Interleave, duration : 40 ms (1.00 video frame)
Interleave, preload duration : 500 ms




Download / Скачать

Хотите скачать бесплатно? Зарегистрируйтесь на сайте (ссылка на регистрацию). Pirat.ca - самый быстрый торрент трекер в рунете!

Как скачивать  ·   Что такое торрент  ·   Рейтинг и ограничения

Пост 18-Янв-2012 16:14 (спустя 5 часов)

Топик был перенесен из форума Наше Кино в форум Российские фильмы

goxakrauter
 
Показать сообщения:    
Ответить на тему

Текущее время: Сегодня 17:40

Часовой пояс: GMT + 4



Вы не можете начинать темы
Вы не можете отвечать на сообщения
Вы не можете редактировать свои сообщения
Вы не можете удалять свои сообщения
Вы не можете голосовать в опросах
Вы не можете прикреплять файлы к сообщениям
Вы не можете скачивать файлы

▼ Вниз