ML
     
  Уважаемый Гость!
Вы можете поддержать проект и зарегистрироваться у наших партнеров - онлайн-стратегия MyLands. При регистрации в игре Вы получите код, который сможете активировать после регистрации на pirat.ca и получить 1000 дублонов.

Ваш код:
4855957e17f50c5c1236a0f8c4492b2b0bba00a0
 
     

100 тысяч (Михаил Дубилет) [2011 г., Комедия, DVDRip]

Ответить на тему
 
Автор
Сообщение

Пост 18-Янв-2012 11:40

[Q] 

Znoi

Флибустьер

-100 тысяч-- Год выпуска: 2011
Выпущено: Россия
Премьера (РФ): 31 декабря 2011
Жанр: Комедия
Продолжительность: 01:27:00
Перевод: Не требуется
Субтитры: отсутствуют--Режиссер: Михаил Дубилет--В ролях: Вадим Бурлаков, Михаил Дубилет, Антон Росицкий, Сергей Куницкий, Владимир Шумков, Дмитрий Лебедев, Юлия Иринина, Борис Драгилев, Александр Бахаревский, Семен Фурман--Описание: Четверо друзей – бармен, рекламщик, журналист и актер – должны за две недели вернуть долг в сто тысяч долларов. Всевозможными креативными авантюрами они стараются добыть нужную сумму в срок.-- --Источник/Качество: DVDRip
Формат: AVI
Видео кодек: XviD
Аудио кодек: MP3
Видео: XviD, 1995 Кбит/с, 720x430 пикс, 25.000 кадр/сек
Аудио: MP3, 2 ch, 128 Кбит/с, 44.1 КГц
General
Complete name : D:\100.tysyach.2011.XviD.DVDRip.[pirat.ca].avi
Format : AVI
Format/Info : Audio Video Interleave
File size : 1.30 GiB
Duration : 1h 27mn
Overall bit rate : 2 135 Kbps
Video
ID : 0
Format : MPEG-4 Visual
Format profile : [email protected]
Format settings, BVOP : No
Format settings, QPel : No
Format settings, GMC : No warppoints
Format settings, Matrix : Default (H.263)
Codec ID : XVID
Codec ID/Hint : XviD
Duration : 1h 27mn
Bit rate : 1 995 Kbps
Width : 720 pixels
Height : 430 pixels
Display aspect ratio : 1.674
Frame rate : 25.000 fps
Color space : YUV
Chroma subsampling : 4:2:0
Bit depth : 8 bits
Scan type : Progressive
Compression mode : Lossy
Bits/(Pixel*Frame) : 0.258
Stream size : 1.22 GiB (93%)
Writing library : XviD 1.2.1 (UTC 2008-12-04)
Audio
ID : 1
Format : MPEG Audio
Format version : Version 1
Format profile : Layer 3
Mode : Joint stereo
Codec ID : 55
Codec ID/Hint : MP3
Duration : 1h 27mn
Bit rate mode : Constant
Bit rate : 128 Kbps
Channel(s) : 2 channels
Sampling rate : 44.1 KHz
Compression mode : Lossy
Stream size : 80.0 MiB (6%)
Alignment : Aligned on interleaves
Interleave, duration : 26 ms (0.65 video frame)
Interleave, preload duration : 26 ms
Writing library : LAME3.98.2




Download / Скачать

Хотите скачать бесплатно? Зарегистрируйтесь на сайте (ссылка на регистрацию). Pirat.ca - самый быстрый торрент трекер в рунете!

Как скачивать  ·   Что такое торрент  ·   Рейтинг и ограничения

Пост 18-Янв-2012 16:15 (спустя 4 часа)

Топик был перенесен из форума Наше Кино в форум Новинки (HD|DVD|BD|TV|SAT|PDTV| - Rips)

goxakrauter
 

Yrets

Флибустьер

159

Пост 18-Янв-2012 17:11 (спустя 5 часов)

[Q] 

Хрень поди?
[Профиль]  [ЛС] 

spatun

Корсар

Пост 18-Янв-2012 18:20 (спустя 1 час 9 минут)

[Q] 

Стоит качать?

_________________
[Профиль]  [ЛС] 

anonymoys

Гроза морей

901

Пост 05-Фев-2012 11:41 (спустя 17 дней)

[Q] 

отличный фильм всем качать
[Профиль]  [ЛС] 

metampsy

Корсар

Пост 24-Апр-2012 14:31 (спустя 2 месяца 19 дней)

[Q] 

Говно!
Сюжет высосан из пальца.
Сценарист, наверное, студент первокурсник.
[Профиль]  [ЛС] 
Показать сообщения:    
Ответить на тему

Текущее время: Сегодня 06:11

Часовой пояс: GMT + 4



Вы не можете начинать темы
Вы не можете отвечать на сообщения
Вы не можете редактировать свои сообщения
Вы не можете удалять свои сообщения
Вы не можете голосовать в опросах
Вы не можете прикреплять файлы к сообщениям
Вы не можете скачивать файлы

▼ Вниз