ML
     
  Уважаемый Гость!
Вы можете поддержать проект и зарегистрироваться у наших партнеров - онлайн-стратегия MyLands. При регистрации в игре Вы получите код, который сможете активировать после регистрации на pirat.ca и получить 1000 дублонов.

Ваш код:
74c28610d77aaac24ba694c4128f3b9b46b04220
 
     

Кто я ? (Клим Шипенко) [2010 г., Драма, детектив, DVDRip]

Ответить на тему
 
Автор
Сообщение

Пост 18-Янв-2012 12:19

[Q] 

and48

Корсар

Кто я ?
Год выпуска: 2010
Жанр: Драма, детектив
Продолжительность: 01:36:02
Режиссер: Клим Шипенко
В ролях: Михаил Бабичев, Анатолий Белый, Сергей Газаров, Сергей Галанин, Илья Оболонков, Виктория Толстоганова, Татьяна Федоровская, Жанна Фриске, Александр Яценко, Константин Демидов
Описание: Ранним дождливым утром на перроне железнодорожного вокзала рядом с поездом «Москва-Севастополь» милиция обнаруживает молодого человека, потерявшего память. Никаких документов при нем не найдено. Кто он? И как оказался на вокзале? Начинается расследование…
Источник/Качество: DVDRip
Формат: AVI
Видео кодек: XviD
Аудио кодек: AC3
Видео: 720x304 (2.37:1), 25 fps, XviD MPEG-4 ~1710 kbps avg, 0.31 bit/pixel
Аудио: 48 kHz, AC3 Dolby Digital, 3/2 (L,C,R,l,r) + LFE ch, ~448 kbps
Общее
Формат : AVI
Формат/Информация : Audio Video Interleave
Размер файла : 1,45 Гбайт
Продолжительность : 1 ч. 36 м.
Общий поток : 2168 Кбит/сек
Программа кодирования : VirtualDubMod 1.5.10.2 (build 2540/release)
Библиотека кодирования : VirtualDubMod build 2540/release
Видео
Идентификатор : 0
Формат : MPEG-4 Visual
Профиль формата : Advanced [email protected]
Параметр BVOP формата : 2
Параметр QPel формата : Нет
Параметр GMC формата : Без точки перехода
Параметр матрицы формата : Default (MPEG)
Режим смешивания : Сжатый битовый поток
Идентификатор кодека : XVID
Идентификатор кодека/Подсказка : XviD
Продолжительность : 1 ч. 36 м.
Битрейт : 1711 Кбит/сек
Ширина : 720 пикселей
Высота : 304 пикселя
Соотношение сторон : 2,35:1
Частота кадров : 25,000 кадров/сек
Цветовое пространство : YUV
Субдискретизация насыщенности : 4:2:0
Битовая глубина : 8 бит
Тип развёртки : Прогрессивная
Метод сжатия : С потерями
Бит/(Пиксели*Кадры) : 0.313
Размер потока : 1,15 Гбайт (79%)
Библиотека кодирования : XviD 1.2.1 (UTC 2008-12-04)
Аудио
Идентификатор : 1
Формат : AC-3
Формат/Информация : Audio Coding 3
Расширение режима : CM (complete main)
Идентификатор кодека : 2000
Продолжительность : 1 ч. 36 м.
Вид битрейта : Постоянный
Битрейт : 448 Кбит/сек
Каналы : 6 каналов
Расположение каналов : Front: L C R, Side: L R, LFE
Частота : 48,0 КГц
Битовая глубина : 16 бит
Метод сжатия : С потерями
Размер потока : 308 Мбайт (21%)
Выравнивание : Разделение по промежуткам
Продолжительность промежутка : 40 мс. (1,00 видеокадр)
Время предзагрузки промежутка : 500 мс.
AntiZip
Download / Скачать

Хотите скачать бесплатно? Зарегистрируйтесь на сайте (ссылка на регистрацию). Pirat.ca - самый быстрый торрент трекер в рунете!

Как скачивать  ·   Что такое торрент  ·   Рейтинг и ограничения



Последний раз редактировалось: and48 (2012-01-18 20:45), всего редактировалось 1 раз

Пост 18-Янв-2012 21:34 (спустя 9 часов)

Топик был перенесен из форума Наше Кино в форум Российские фильмы

goxakrauter
 

and48 ®

Корсар

169

Пост 19-Янв-2012 17:53 (спустя 1 день 5 часов)

[Q] 

Рейтинг фильма по КиноПоиск.RU - 6,63.
Жанна Фриске в эротической сцене во всем великолепии!
[Профиль]  [ЛС] 

Dj NIKI

Флибустьер

3041

Пост 17-Дек-2012 09:08 (спустя 10 месяцев 28 дней)

[Q] 


_________________
[Профиль]  [ЛС] 

Пост 12-Янв-2014 02:05 (спустя 1 год)

Топик был перенесен из форума Зарубежное Кино (Трюм) в форум Российские фильмы
erchine
 

дудан

Штурман

Пост 12-Янв-2014 04:04 (спустя 1 год)

[Q] 

Спасибо!!! Супер! Фильмец хороший
[Профиль]  [ЛС] 

kitailist

Штурман

Пост 12-Янв-2014 10:18 (спустя 6 часов)

[Q] 

даже название сперли
[Профиль]  [ЛС] 
Показать сообщения:    
Ответить на тему

Текущее время: Сегодня 10:00

Часовой пояс: GMT + 4



Вы не можете начинать темы
Вы не можете отвечать на сообщения
Вы не можете редактировать свои сообщения
Вы не можете удалять свои сообщения
Вы не можете голосовать в опросах
Вы не можете прикреплять файлы к сообщениям
Вы не можете скачивать файлы

▼ Вниз