ML
     
  Уважаемый Гость!
Вы можете поддержать проект и зарегистрироваться у наших партнеров - онлайн-стратегия MyLands. При регистрации в игре Вы получите код, который сможете активировать после регистрации на pirat.ca и получить 1000 дублонов.

Ваш код:
062e2babcc491faeb40d496cf9a498ac3df6cdd0
 
     

Красавец и чудовище (Иван Криворучко) [2014 г., мелодрама, HDTVRip]

Ответить на тему
 
Автор
Сообщение

Пост 21-Окт-2014 10:20

[Q] 

ara1205

-Красавец и чудовище-- Производство: Россия
Год выпуска: 2014 г.
Жанр: мелодрама
Продолжительность: 01:44:58-Режиссер: Иван Криворучко-В ролях: Вероника Пляшкевич, Алексей Анищенко, Артем Давидович, Валерия Шкирандо, Тамара Миронова, Анатолий Гурьев, Ирина Корниевич, Андрей Кривецкий, Андрей Карако, Анатолий Голуб, Олег Коц, Виталий Холодок, Валерий Кащеев, Диана Иванова, Анастасия Боброва, Инна Коляда-Описание: Варвара Гвоздикова — торговка помидорами и гроза местного рынка. За словом в карман не лезет, себя в обиду не дает. За непримиримый характер, чумазое лицо и вечную телогрейку Варю называют «чудовищем». Впрочем, не такое уж Варя «чудовище». Просто какой тут лоск, если работаешь от зари до зари, а всю зарплату забирают мать-пьяница и ее непутевый муж? Да и рынок провинциального городка — не то место, где можно научиться хорошим манерам. Варя и сама уже не помнит о времени, когда носила косу, была любимицей отца и лучшей ученицей в классе. Отец умер, и жизнь сложилась так… как сложилась. Варя не жалуется и не унывает, но ровно до того дня, пока не оказывается без дома и без работы. Директор рынка выбрасывает Варю на улицу за то, что она отдавила ногу и нахамила важному клиенту — столичному бизнесмену, красавцу Ивану. А мать не собирается держать дома «дармоедку».- -Качество видео: HDTVRip
Контейнер: AVI
Видео кодек: XviD
Аудио кодек: AC3
Видео: 720x400, 25,000 fps, 1662 kbps avg, 0.231 bit/pixel
Аудио: 48 kHz, AC3 Dolby Digital, 2 ch, ~192.00 kbps avg
Cубтитры: отсутствуют-
Общее
Полное имя : C:\Users\Ромик\Pictures\Красавец и чудовище\Krasavets.i.Chudovische.2014.avi
Формат : AVI
Формат/Информация : Audio Video Interleave
Размер файла : 1,37 Гбайт
Продолжительность : 1 ч. 44 м.
Общий поток : 1863 Кбит/сек
Программа кодирования : VirtualDubMod 1.5.10.3 | www.virtualdub-fr.org || (build 2550/release)
Библиотека кодирования : VirtualDubMod build 2550/release
Видео
Идентификатор : 0
Формат : MPEG-4 Visual
Профиль формата : Advanced [email protected]
Параметр BVOP формата : 1
Параметр QPel формата : Нет
Параметр GMC формата : Без точки перехода
Параметр матрицы формата : Выборочная
Идентификатор кодека : XVID
Идентификатор кодека/Подсказка : XviD
Продолжительность : 1 ч. 44 м.
Битрейт : 1662 Кбит/сек
Ширина : 720 пикселей
Высота : 400 пикселей
Соотношение сторон : 16:9
Частота кадров : 25,000 кадров/сек
Цветовое пространство : YUV
Субдискретизация насыщенности : 4:2:0
Битовая глубина : 8 бит
Тип развёртки : Прогрессивная
Метод сжатия : С потерями
Бит/(Пиксели*Кадры) : 0.231
Размер потока : 1,22 Гбайт (89%)
Библиотека кодирования : XviD 73
Аудио
Идентификатор : 1
Формат : AC-3
Формат/Информация : Audio Coding 3
Расширение режима : CM (complete main)
Параметр Endianness формата : Big
Идентификатор кодека : 2000
Продолжительность : 1 ч. 44 м.
Вид битрейта : Постоянный
Битрейт : 192 Кбит/сек
Каналы : 2 канала
Расположение каналов : Front: L R
Частота : 48,0 КГц
Битовая глубина : 16 бит
Метод сжатия : С потерями
Размер потока : 144 Мбайт (10%)
Выравнивание : Разделение по промежуткам
Продолжительность промежутка : 40 мс. (1,00 видеокадр)
Время предзагрузки промежутка : 500 мс.
-
-
Download / Скачать

Хотите скачать бесплатно? Зарегистрируйтесь на сайте (ссылка на регистрацию). Pirat.ca - самый быстрый торрент трекер в рунете!

Как скачивать  ·   Что такое торрент  ·   Рейтинг и ограничения

Jek@

Легенда

Пост 21-Окт-2014 15:04 (спустя 4 часа)

[Q] 

Спасибо!!! .
[Профиль]  [ЛС] 

zlotosalien

Флибустьер

Пост 21-Окт-2014 17:00 (спустя 1 час 56 минут)

[Q] 

Зачем вы эту шляпу с телеканала выложили...очередной Российский шлак который крутят по телевидению...
[Профиль]  [ЛС] 

netbuos

Шкипер

Пост 21-Окт-2014 19:08 (спустя 2 часа 7 минут)

[Q] 

Ребята... ну не смотрите ЭТО... пожелтейте себя любимого (ю)
[Профиль]  [ЛС] 

kinstintin

Гроза морей

Пост 21-Окт-2014 20:58 (спустя 1 час 50 минут)

[Q] 

попробуем оценить этот "шедевр"
беру больше для супруги
[Профиль]  [ЛС] 

polyk

Флибустьер

Пост 21-Окт-2014 21:52 (спустя 53 минуты)

[Q] 

и здесь это [email protected] стало появляться!!!!!срочно удалите !!!!!
[Профиль]  [ЛС] 

Танюха10988

Гроза морей

Пост 22-Окт-2014 00:15 (спустя 2 часа 23 минуты)

[Q] 

Спасибо!!!
[Профиль]  [ЛС] 

Бомс

Морской Волк

Пост 22-Окт-2014 12:26 (спустя 12 часов)

[Q] 

Очердной фейк.. ))))

_________________
Всё будет зашибись! Только не стоит этому мешать!!!
[Профиль]  [ЛС] 

Maks_e

Корсар

69

Пост 03-Фев-2015 14:24 (спустя 3 месяца 12 дней)

[Q] 

скачаем жене на заценку
[Профиль]  [ЛС] 
Показать сообщения:    
Ответить на тему

Текущее время: Сегодня 17:42

Часовой пояс: GMT + 4



Вы не можете начинать темы
Вы не можете отвечать на сообщения
Вы не можете редактировать свои сообщения
Вы не можете удалять свои сообщения
Вы не можете голосовать в опросах
Вы не можете прикреплять файлы к сообщениям
Вы не можете скачивать файлы

▼ Вниз