ML
     
  Уважаемый Гость!
Вы можете поддержать проект и зарегистрироваться у наших партнеров - онлайн-стратегия MyLands. При регистрации в игре Вы получите код, который сможете активировать после регистрации на pirat.ca и получить 1000 дублонов.

Ваш код:
156f85568ae63e45e07ac461c96a83ba1a876b0a
 
     

Чужая война (Александр Черняев) [2014 г., Боевик, HDRip] DVO

Ответить на тему
 
Автор
Сообщение

Пост 23-Окт-2014 14:00

[Q] 

Элез

Флибустьер

-Чужая война-- Производство: Россия
Режиссер: Александр Черняев
Жанр: Боевик
Год выпуска: 2014 г.
Продолжительность: 01:25:11
Перевод:Любительский (двухголосый) [Диапазон]
В ролях: Вячеслав Крикунов, Артем Ткаченко, Александр Самойленко, Валерий Соловьев, Александр Фисенко, Амаду Мамадаков, Владислав Демин, Никита Грибанов, Николай Мачульский, Михаил Тарабукин-Описание: 1970 год. Юго-Восточная Азия. Вьетнам поделен на части и охвачен гражданской войной. Советский Союз, негласно выступая на стороне Севера, наряду с военно-техническими грузами направляет в Демократическую Республику Вьетнам военных специалистов. Были среди них и части особого назначения, представителей которых называли «трофейщиками»…-Сэмпл КиноПоиск
Качество видео: HDRip
Контейнер: AVI
Видео кодек: XviD
Аудио кодек: AC3
Видео: MPEG-4 Visual at 1840 Кбит/сек : 720 x 304 at 25.000 0.336 fps Бит/Пиксели
Аудио #1: AC-3 at 192 Кбит/сек : 2 канала, 44,1 КГц
Аудио #2:AC-3 at 256 Кбит/сек: 2 канала, 48,0 КГц
Cубтитры: отсутствуют
Общее
Полное имя : D:\уторент\раздачи\Chuzhaja.vojna.2014.L2.HDRip.1400Mb.avi
Формат : AVI
Формат/Информация : Audio Video Interleave
Размер файла : 1,37 Гбайт
Продолжительность : 1 ч. 25 м.
Общий поток : 2302 Кбит/сек
Программа кодирования : VirtualDubMod 1.5.10.3 | www.virtualdub-fr.org || (build 2550/release)
Библиотека кодирования : VirtualDubMod build 2550/release
Видео
Идентификатор : 0
Формат : MPEG-4 Visual
Профиль формата : Advanced [email protected]
Параметр BVOP формата : 2
Параметр QPel формата : Нет
Параметр GMC формата : Без точки перехода
Параметр матрицы формата : Default (MPEG)
Идентификатор кодека : XVID
Идентификатор кодека/Подсказка : XviD
Продолжительность : 1 ч. 25 м.
Битрейт : 1840 Кбит/сек
Ширина : 720 пикселей
Высота : 304 пикселя
Соотношение сторон : 2,35:1
Частота кадров : 25,000 кадров/сек
Цветовое пространство : YUV
Субдискретизация насыщенности : 4:2:0
Битовая глубина : 8 бит
Тип развёртки : Прогрессивная
Метод сжатия : С потерями
Бит/(Пиксели*Кадры) : 0.336
Размер потока : 1,09 Гбайт (80%)
Библиотека кодирования : XviD 1.2.1 (UTC 2008-12-04)
Аудио #1
Идентификатор : 1
Формат : AC-3
Формат/Информация : Audio Coding 3
Расширение режима : CM (complete main)
Параметр Endianness формата : Big
Идентификатор кодека : 2000
Продолжительность : 1 ч. 25 м.
Вид битрейта : Постоянный
Битрейт : 192 Кбит/сек
Каналы : 2 канала
Расположение каналов : Front: L R
Частота : 44,1 КГц
Битовая глубина : 16 бит
Метод сжатия : С потерями
Размер потока : 117 Мбайт (8%)
Выравнивание : Разделение по промежуткам
Продолжительность промежутка : 40 мс. (1,00 видеокадр)
Время предзагрузки промежутка : 500 мс.
Аудио #2
Идентификатор : 2
Формат : AC-3
Формат/Информация : Audio Coding 3
Расширение режима : CM (complete main)
Параметр Endianness формата : Big
Идентификатор кодека : 2000
Продолжительность : 1 ч. 25 м.
Вид битрейта : Постоянный
Битрейт : 256 Кбит/сек
Каналы : 2 канала
Расположение каналов : Front: L R
Частота : 48,0 КГц
Битовая глубина : 16 бит
Метод сжатия : С потерями
Размер потока : 156 Мбайт (11%)
Выравнивание : Разделение по промежуткам
Продолжительность промежутка : 40 мс. (1,00 видеокадр)
Время предзагрузки промежутка : 500 мс.
Download / Скачать

Хотите скачать бесплатно? Зарегистрируйтесь на сайте (ссылка на регистрацию). Pirat.ca - самый быстрый торрент трекер в рунете!

Как скачивать  ·   Что такое торрент  ·   Рейтинг и ограничения

Vintorezov REG 39

Легенда

176

Пост 23-Окт-2014 17:25 (спустя 3 часа)

[Q] 

Спасибо качаю наверно неплохое кино . Лови бочку
Добавлено спустя 3 минуты 33 секунды:
Доп. информация: В России фильм ни в прокате, ни на ТВ, ни на DVD не появмлся. В Германии появился DVD с немецким дубляжем. Предлагаемая версия - русский закадровый перевод немецкого варианта. Почему его в России проигнорировали, непонятно. История "русского Рэмбо" офицера ГРУ Павла Молчанова о его участии в тайных операциях во время вьетнамской войны у нас тоже, наверное, многих бы заинтересовала.
[Профиль]  [ЛС] 

ss80

Флибустьер

36

Пост 23-Окт-2014 19:44 (спустя 2 часа 19 минут)

[Q] 

Спасибо!!!
На форуме  [Профиль]  [ЛС] 

Элез ®

Флибустьер

15324

Пост 23-Окт-2014 22:24 (спустя 2 часа 39 минут)

[Q] 

Я сам удивился откуда фильм появился в россии

_________________

[Профиль]  [ЛС] 

Пост 24-Окт-2014 12:37 (спустя 14 часов)

Топик был перенесен из форума Наше кино (Трюм) в форум Новинки (HD|DVD|BD| TV|SAT|PDTV| - Rips)
ara1205
 

OleksBy

Корсар

Пост 24-Окт-2014 14:29 (спустя 16 часов)

[Q] 

это надо посмотреть Лови бочку
[Профиль]  [ЛС] 

Dac

Морской Волк

Пост 24-Окт-2014 15:02 (спустя 32 минуты)

[Q] 

[Профиль]  [ЛС] 

hevard

Гроза морей

2108

Пост 24-Окт-2014 16:36 (спустя 1 час 34 минуты)

[Q] 

Классный сериал (мини) был «Ру́сский перево́д» — российский телевизионный сериал 2007 года, снят по роману А. Константинова «Журналист». Сериал о советских военных переводчиках-арабистах: студентах и курсантах-практикантах, кадровых военных, «двухгодичниках» и «служащих СА», работавших во второй половине 1980-х в арабских странах, конкретно — в Народной Демократической Республике Йемен и Ливии. Рекомендую!!!
ПыСы: Сейчас глянул на Вики, оказывается это тоже Черняевский сериал!!!

_________________
-Я старый пират и не знаю слов лицензионного соглашения...
[Профиль]  [ЛС] 

srg078rus

Корсар

97

Пост 24-Окт-2014 17:24 (спустя 47 минут)

[Q] 

Спасибо!!! Посмотрим)) Описание нравится)) Автору респект!!!

_________________
[Профиль]  [ЛС] 

italiano711

Гроза морей

Пост 24-Окт-2014 17:47 (спустя 23 минуты)

[Q] 

Вроде отзывы хорошие, посмотрим...
[Профиль]  [ЛС] 

мешок66

Морской Волк

Пост 25-Окт-2014 08:32 (спустя 14 часов)

[Q] 

напоминает американские фильмы про вьетнам годов 80-90.мне хватило 30 минут.жаль что наши снимают такую херь. Ой как стыдно-то...
[Профиль]  [ЛС] 

Vintorezov REG 39

Легенда

176

Пост 26-Окт-2014 10:57 (спустя 1 день 2 часа)

[Q] 

А вообще, фильм не очень.... ощущение бессмысленности просмотренного. Вроде, и не боевик, и не драма, и фиг знает что.
[Профиль]  [ЛС] 

Apostle358

Корсар

150

Пост 29-Окт-2014 09:47 (спустя 2 дня 22 часа)

[Q] 

596808А вообще, фильм не очень....
Скажу так, фильм снят на 3+, видна рука неопытного режиссера, хотя спец эффекты можно натянуть и на 4-, просто ребята снимали то, о чем имеют смутное представление.
[Профиль]  [ЛС] 

hevard

Гроза морей

2108

Пост 29-Окт-2014 15:33 (спустя 5 часов)

[Q] 

Вообще, на сколько я понял - это не ТВ. Это мини сериал, как "Адмирал". Тут просто нарезали кусков - вот и не понять, что к чему. Качество в целом хорошее, перевод ЛЮБИТЕЛЬСКИЙ!!! Фраза пилота "Roger that" не переводится как "Роджер"!!! bm Как же эти любительские переводы тематических фильмов режут слух... Улыбнули косоглазые, говорящие на чистом арийском... bj
Жаль, что нет целого полного фильма-сериала и желательно на русском...
В общем - неплохо вышло... Но!!!

_________________
-Я старый пират и не знаю слов лицензионного соглашения...
[Профиль]  [ЛС] 

Selim

Корсар

Пост 29-Окт-2014 18:49 (спустя 3 часа)

[Q] 

Фильм по голивудски глуповат и наивен.
[Профиль]  [ЛС] 

protar

Штурман

Пост 29-Окт-2014 19:08 (спустя 18 минут)

[Q] 

Ша посмотрим Автору респект!!!
[Профиль]  [ЛС] 

Пост 02-Дек-2014 21:42 (спустя 1 месяц 4 дня)

Топик был перенесен из форума Новинки (HD|DVD|BD| TV|SAT|PDTV| - Rips) в форум Российские фильмы
kugesan
 

Scorpion7474

Флибустьер

Пост 03-Дек-2014 13:32 (спустя 1 месяц 4 дня)

[Q] 

Автору респект!!! Лови бочку
[Профиль]  [ЛС] 

RnD

Морской Волк

Пост 09-Янв-2015 12:39 (спустя 1 месяц 5 дней)

[Q] 

Спасибо за труды!
[Профиль]  [ЛС] 
Показать сообщения:    
Ответить на тему

Текущее время: Сегодня 21:58

Часовой пояс: GMT + 4



Вы не можете начинать темы
Вы не можете отвечать на сообщения
Вы не можете редактировать свои сообщения
Вы не можете удалять свои сообщения
Вы не можете голосовать в опросах
Вы не можете прикреплять файлы к сообщениям
Вы не можете скачивать файлы

▼ Вниз