ML
     
  Уважаемый Гость!
Вы можете поддержать проект и зарегистрироваться у наших партнеров - онлайн-стратегия MyLands. При регистрации в игре Вы получите код, который сможете активировать после регистрации на pirat.ca и получить 1000 дублонов.

Ваш код:
4855957e17f50c5c1236a0f8c4492b2b0bba00a0
 
     

Одинок по контракту (Евгений Матвиенко) [2014 г., комедия, мелодрама, WEBRip] Оригинал

Ответить на тему
 
Автор
Сообщение

Пост 25-Окт-2014 12:11

[Q] 

LPPI

-Одинок по контракту- Производство: Украина / Film.UA, Новый канал
Жанр: комедия, мелодрама
Год выпуска: 2014 г.
Продолжительность: 01:38:59
Российская премьера: 4 сентября 2014-Режиссер: Евгений Матвиенко
В ролях: Ольга Лерман, Вацлав Верхол, Ольга Тумайкина, Сергей Перегудов, Андрей Саминин, Валерий Созановский, Александр Дулин, Наоми Вульф, Василий Вирастюк, Алан Бадоев-Описание: Фильм расскажет историю молодой восходящей звезды Славы Лебедева, фронтмена рок-группы «Сердце города», и юной Лили Фиалко, которая влюбляется в Славу, не подозревая о его популярности. Проблема заключается в том, что по контракту Славе нельзя не только жениться, но и встречаться с девушкой, чтобы не разрушить свой сценический образ и не лишиться любви фанаток.-Сэмпл КиноПоиск-Качество видео: WEBRip
Контейнер: AVI
Видео кодек: XviD
Аудио кодек: AC3
Видео: 720x400 (1.80:1), 25 fps, XviD build 50 ~1775 kbps avg, 0.25 bit/pixel
Аудио: 48 kHz, AC3 Dolby Digital, 2/0 (L,R) ch, ~192 kbps
Cубтитры: отсутствуют
General
Complete name : D:\Od1nok.po.K0ntraktU.2014.O.WEBRip.1400Mb.avi
Format : AVI
Format/Info : Audio Video Interleave
File size : 1.37 GiB
Duration : 1h 38mn
Overall bit rate : 1 977 Kbps
Writing application : VirtualDubMod 1.5.10.2 (build 2540/release)
Writing library : VirtualDubMod build 2540/release
Video
ID : 0
Format : MPEG-4 Visual
Format profile : Advanced [email protected]
Format settings, BVOP : 2
Format settings, QPel : No
Format settings, GMC : No warppoints
Format settings, Matrix : Default (MPEG)
Codec ID : XVID
Codec ID/Hint : XviD
Duration : 1h 38mn
Bit rate : 1 776 Kbps
Width : 720 pixels
Height : 400 pixels
Display aspect ratio : 16:9
Frame rate : 25.000 fps
Color space : YUV
Chroma subsampling : 4:2:0
Bit depth : 8 bits
Scan type : Progressive
Compression mode : Lossy
Bits/(Pixel*Frame) : 0.247
Stream size : 1.23 GiB (90%)
Writing library : XviD 1.2.1 (UTC 2008-12-04)
Audio
ID : 1
Format : AC-3
Format/Info : Audio Coding 3
Mode extension : CM (complete main)
Format settings, Endianness : Big
Codec ID : 2000
Duration : 1h 38mn
Bit rate mode : Constant
Bit rate : 192 Kbps
Channel(s) : 2 channels
Channel positions : Front: L R
Sampling rate : 48.0 KHz
Bit depth : 16 bits
Compression mode : Lossy
Stream size : 136 MiB (10%)
Alignment : Split accross interleaves
Interleave, duration : 40 ms (1.00 video frame)
Interleave, preload duration : 500 ms
Download / Скачать

Хотите скачать бесплатно? Зарегистрируйтесь на сайте (ссылка на регистрацию). Pirat.ca - самый быстрый торрент трекер в рунете!

Как скачивать  ·   Что такое торрент  ·   Рейтинг и ограничения

Пост 25-Окт-2014 12:36 (спустя 25 минут)

Топик был перенесен из форума Наше кино (Трюм) в форум Новинки (HD|DVD|BD| TV|SAT|PDTV| - Rips)
kugesan
 

alex198408

Морской Волк

Пост 25-Окт-2014 12:52 (спустя 41 минута)

[Q] 

Супер! Спасибо!!! спасибо!!!
[Профиль]  [ЛС] 

Alexlogin

Гроза морей

105

Пост 25-Окт-2014 13:35 (спустя 43 минуты)

[Q] 

Спасибо за раздачу качаем
[Профиль]  [ЛС] 

moscowpan

3434

Пост 27-Окт-2014 17:12 (спустя 2 дня 3 часа)

[Q] 

Украина - это прямо-таки актуально.

_________________
[Профиль]  [ЛС] 

Ambre

Корсар

Пост 27-Окт-2014 17:29 (спустя 16 минут)

[Q] 

Ходил на него в Кино прикольная, любовная комедия, все в западном стиле по сюжету...
[Профиль]  [ЛС] 

hohol541

Корсар

Пост 28-Окт-2014 15:10 (спустя 21 час)

[Q] 

В ЗАПАДНОМ стиле..........
[Профиль]  [ЛС] 

Пост 02-Дек-2014 21:42 (спустя 1 месяц 5 дней)

Топик был перенесен из форума Новинки (HD|DVD|BD| TV|SAT|PDTV| - Rips) в форум Российские фильмы
kugesan
 
Показать сообщения:    
Ответить на тему

Текущее время: Сегодня 06:13

Часовой пояс: GMT + 4



Вы не можете начинать темы
Вы не можете отвечать на сообщения
Вы не можете редактировать свои сообщения
Вы не можете удалять свои сообщения
Вы не можете голосовать в опросах
Вы не можете прикреплять файлы к сообщениям
Вы не можете скачивать файлы

▼ Вниз