ML
     
  Уважаемый Гость!
Вы можете поддержать проект и зарегистрироваться у наших партнеров - онлайн-стратегия MyLands. При регистрации в игре Вы получите код, который сможете активировать после регистрации на pirat.ca и получить 1000 дублонов.

Ваш код:
156f85568ae63e45e07ac461c96a83ba1a876b0a
 
     

Беглецы (Рустам Мосафир) [2014 г., триллер, приключения, DVDRip]

Ответить на тему
 
Автор
Сообщение

Пост 30-Окт-2014 01:32

[Q] 

mishanya___

-Беглецы--
Производство: Россия, Казахстан
Режиссер: Рустам Мосафир
Жанр: триллер, приключения
Год выпуска: 2014 г.
Продолжительность: 01:28:26
Российская премьера: 25 сентября 2014, «DreamTeam»
Дата выхода DVD: 28 октября 2014, «CD Land»-В ролях: Пётр Фёдоров, Елизавета Боярская, Валерий Гришко, Сергей Цепов, Александр Самойлов, Ерик Жолжаксынов, Кирилл Анисимов, Юрис Лауциньш, Сейдулла Молдаханов, Гульнур Кожахметова-Описание: Он — вне закона, по его пятам идут охотники за головами. Она знает тайгу, как свои пять пальцев, и только вместе они могут остаться в живых. Тайга общая: кто сильнее, тот и прав, а охота уже началась…
-

Качество видео: DVDRip
Контейнер: AVI
Видео кодек: XviD
Аудио кодек: AC3
Видео: 720x400; 1755 Kbps; 25.00 fps; 0.244 Bit/pixel
Аудио: 448 Kbps; 6 ch; 48.0 kHz
Формат : AVI
Формат/Информация : Audio Video Interleave
Размер файла : 1,37 Гбайт
Продолжительность : 1 ч. 28 м.
Общий поток : 2212 Кбит/сек
Программа кодирования : VirtualDubMod 1.5.10.3 | (build 2550/release)
Библиотека кодирования : VirtualDubMod build 2550/release
Видео
Идентификатор : 0
Формат : MPEG-4 Visual
Профиль формата : Advanced [email protected]
Параметр BVOP формата : 2
Параметр QPel формата : Нет
Параметр GMC формата : Без точки перехода
Параметр матрицы формата : Default (MPEG)
Идентификатор кодека : XVID
Идентификатор кодека/Подсказка : XviD
Продолжительность : 1 ч. 28 м.
Битрейт : 1755 Кбит/сек
Ширина : 720 пикселей
Высота : 400 пикселей
Соотношение сторон : 16:9
Частота кадров : 25,000 кадров/сек
Цветовое пространство : YUV
Субдискретизация насыщенности : 4:2:0
Битовая глубина : 8 бит
Тип развёртки : Прогрессивная
Метод сжатия : С потерями
Бит/(Пиксели*Кадры) : 0.244
Размер потока : 1,08 Гбайт (79%)
Библиотека кодирования : XviD 1.2.1 (UTC 2008-12-04)
Аудио
Идентификатор : 1
Формат : AC-3
Формат/Информация : Audio Coding 3
Расширение режима : CM (complete main)
Параметр Endianness формата : Big
Идентификатор кодека : 2000
Продолжительность : 1 ч. 28 м.
Вид битрейта : Постоянный
Битрейт : 448 Кбит/сек
Каналы : 6 каналов
Расположение каналов : Front: L C R, Side: L R, LFE
Частота : 48,0 КГц
Битовая глубина : 16 бит
Метод сжатия : С потерями
Размер потока : 283 Мбайт (20%)
Выравнивание : Разделение по промежуткам
Продолжительность промежутка : 40 мс. (1,00 видеокадр)
Время предзагрузки промежутка : 500 мс.
Download / Скачать

Хотите скачать бесплатно? Зарегистрируйтесь на сайте (ссылка на регистрацию). Pirat.ca - самый быстрый торрент трекер в рунете!

Как скачивать  ·   Что такое торрент  ·   Рейтинг и ограничения

Пост 30-Окт-2014 08:48 (спустя 7 часов)

Топик был перенесен из форума Наше кино (Трюм) в форум Новинки (HD|DVD|BD| TV|SAT|PDTV| - Rips)
LPPI
 

ZiminY

Гроза морей

3242

Пост 30-Окт-2014 09:12 (спустя 7 часов)

[Q] 

Не нравится Боярская, но фильм посмотрю. Спасибо!!! Лови бочку

_________________
[Профиль]  [ЛС] 

Alexlogin

Гроза морей

105

Пост 30-Окт-2014 10:23 (спустя 1 час 11 минут)

[Q] 

Спасибо качаем смотрим
[Профиль]  [ЛС] 

svat74

Корсар

Пост 30-Окт-2014 12:36 (спустя 2 часа 13 минут)

[Q] 

НАДЕЮСЬ ЕСТЬ ЧТО СМОТРЕТЬ Автору респект!!!
[Профиль]  [ЛС] 

zlotosalien

Флибустьер

Пост 30-Окт-2014 13:59 (спустя 1 час 22 минуты)

[Q] 

А чего у вас СЕМПЛ и КИНОПОИСК под постером?
[Профиль]  [ЛС] 

mishanya___ ®

21467

Пост 30-Окт-2014 14:15 (спустя 16 минут)

[Q] 

zlotosalien, так захотелось ) Для разнообразия вобщем...
[Профиль]  [ЛС] 

Jek@

Легенда

Пост 30-Окт-2014 15:54 (спустя 1 час 38 минут)

[Q] 

Спасибо!!! .
[Профиль]  [ЛС] 

Vintorezov REG 39

Легенда

176

Пост 30-Окт-2014 18:43 (спустя 2 часа 48 минут)

[Q] 

Спасибо скачаю посмотрю Спасибо!!!
[Профиль]  [ЛС] 

srg078rus

Корсар

97

Пост 30-Окт-2014 18:52 (спустя 9 минут)

[Q] 

Спасибо!!!

_________________
[Профиль]  [ЛС] 

OleksBy

Корсар

Пост 30-Окт-2014 20:26 (спустя 1 час 33 минуты)

[Q] 

Спасибо!!! так и не понятно, как фильм - надо смотреть самому)) Автору респект!!!
[Профиль]  [ЛС] 

viktor41

Шкипер

Пост 30-Окт-2014 20:34 (спустя 7 минут)

[Q] 

mishanya___, Спасибо! Автору респект!!! aa
[Профиль]  [ЛС] 

Selim

Корсар

Пост 30-Окт-2014 20:34 (спустя 33 секунды)

[Q] 

И ни одного комментария по существу. Сплошной флуд.
[Профиль]  [ЛС] 

Dac

Морской Волк

Пост 30-Окт-2014 20:38 (спустя 4 минуты)

[Q] 

[Профиль]  [ЛС] 

kocmoc35

Морской Волк

Пост 30-Окт-2014 20:47 (спустя 8 минут)

[Q] 

спасибо.норм фильм.
[Профиль]  [ЛС] 

Aurums

Корсар

Пост 30-Окт-2014 21:12 (спустя 24 минуты)

[Q] 

598783И ни одного комментария по существу. Сплошной флуд.
Здесь это теперь, считается нормой)
[Профиль]  [ЛС] 

realyu

Корсар

Пост 31-Окт-2014 01:39 (спустя 4 часа)

[Q] 

Антураж - без вопросов, отлично.
Экшен - весь в трейлере уместился. К середине фильма начинается зевота, на 3/4 в голове один вопрос "Да когда же уже он кончится-то наконец?".
Конец - немного предсказуем.
Морали (сути) в фильме - никакой. Просто фильм, по большому счету - ни о чём.
Итого: сюжет банален, а внимание удержать нечем. После таких фильмов традиционно начинаешь сам себя корить в 100500 раз "Нафиг я это смотрел? Ну зарекался же наше кино смотреть, ну не умеют наши снимать, не дано!"... но через какое-то время опять усаживаешься за просмотр отечественного кино - а вдруг случится чудо?
п.с. фильм возможно понравится тем, для кого картинка важнее смысла и экшена - снято, в принципе, неплохо (антураж, природа, медведь, левая молочная железа Боярской).
[Профиль]  [ЛС] 

MaXoR

Флибустьер

1465

Пост 31-Окт-2014 18:33 (спустя 16 часов)

[Q] 

Полностью согласен с предыдущим критиком. Пейзажи - улет, смысла - ноль.

_________________
Живы будем - не помрем!
[Профиль]  [ЛС] 

ZiminY

Гроза морей

3242

Пост 31-Окт-2014 23:27 (спустя 4 часа)

[Q] 

Хотел поделиться впечатлением, но к сказанному realyu добавить практически нечего. Только первый вопрос после просмотра был другой: "Это что - всё?". Для чего были потрачены деньги спонсоров? Разачарован... Раздающему респект!

_________________
[Профиль]  [ЛС] 

Vintorezov REG 39

Легенда

176

Пост 09-Ноя-2014 22:43 (спустя 8 дней)

[Q] 

Посмотрел: На любителя фильм так себе на один раз.
[Профиль]  [ЛС] 

zloiaspirant

Корсар

Пост 10-Ноя-2014 18:56 (спустя 20 часов)

[Q] 

Спасибо!!! На любителя
[Профиль]  [ЛС] 

Пост 02-Дек-2014 21:43 (спустя 22 дня)

Топик был перенесен из форума Новинки (HD|DVD|BD| TV|SAT|PDTV| - Rips) в форум Российские фильмы
kugesan
 
Показать сообщения:    
Ответить на тему

Текущее время: Сегодня 22:02

Часовой пояс: GMT + 4



Вы не можете начинать темы
Вы не можете отвечать на сообщения
Вы не можете редактировать свои сообщения
Вы не можете удалять свои сообщения
Вы не можете голосовать в опросах
Вы не можете прикреплять файлы к сообщениям
Вы не можете скачивать файлы

▼ Вниз