ML
     
  Уважаемый Гость!
Вы можете поддержать проект и зарегистрироваться у наших партнеров - онлайн-стратегия MyLands. При регистрации в игре Вы получите код, который сможете активировать после регистрации на pirat.ca и получить 1000 дублонов.

Ваш код:
bb0cb47ee786a33f751af5a500dd264c9487bfac
 
     

Класс коррекции (Иван И. Твердовский) [2014 г., драма, DVDRip]

Ответить на тему
 
Автор
Сообщение

Пост 30-Окт-2014 02:00

[Q] 

mishanya___

-Класс коррекции--
Производство: Россия
Режиссер: Иван И. Твердовский
Жанр: драма
Год выпуска: 2014 г.
Продолжительность: 01:28:35
Российская премьера: 25 сентября 2014, «A Company»
Дата выхода DVD: 28 октября 2014, «CD Land»-В ролях:
Мария Поезжаева, Никита Кукушкин, Филипп Авдеев, Ольга Лапшина, Наталья Павленкова, Юлия Серина, Артем Маркарьян, Мария Урядова, Наталья Домерецкая, Ирина Вилкова-Описание:
Класс коррекции — это гетто для неудобных подростков? Или лучшее на свете место для рождения первой любви…
-

Качество видео: DVDRip
Контейнер: AVI
Видео кодек: XviD
Аудио кодек: AC3
Видео: 720x400; 1752 kbps; 25,0 fps; 0.243 Bit/Pixel
Аудио: 448 kbps; 6 ch; 48.0 kHz
Формат : AVI
Формат/Информация : Audio Video Interleave
Размер файла : 1,37 Гбайт
Продолжительность : 1 ч. 28 м.
Общий поток : 2209 Кбит/сек
Программа кодирования : VirtualDubMod 1.5.10.3 | www.virtualdub-fr.org || (build 2550/release)
Библиотека кодирования : VirtualDubMod build 2550/release
Видео
Идентификатор : 0
Формат : MPEG-4 Visual
Профиль формата : Advanced [email protected]
Параметр BVOP формата : 2
Параметр QPel формата : Нет
Параметр GMC формата : Без точки перехода
Параметр матрицы формата : Default (MPEG)
Идентификатор кодека : XVID
Идентификатор кодека/Подсказка : XviD
Продолжительность : 1 ч. 28 м.
Битрейт : 1752 Кбит/сек
Ширина : 720 пикселей
Высота : 400 пикселей
Соотношение сторон : 16:9
Частота кадров : 25,000 кадров/сек
Цветовое пространство : YUV
Субдискретизация насыщенности : 4:2:0
Битовая глубина : 8 бит
Тип развёртки : Прогрессивная
Метод сжатия : С потерями
Бит/(Пиксели*Кадры) : 0.243
Размер потока : 1,08 Гбайт (79%)
Библиотека кодирования : XviD 1.2.1 (UTC 2008-12-04)
Аудио
Идентификатор : 1
Формат : AC-3
Формат/Информация : Audio Coding 3
Расширение режима : CM (complete main)
Параметр Endianness формата : Big
Идентификатор кодека : 2000
Продолжительность : 1 ч. 28 м.
Вид битрейта : Постоянный
Битрейт : 448 Кбит/сек
Каналы : 6 каналов
Расположение каналов : Front: L C R, Side: L R, LFE
Частота : 48,0 КГц
Битовая глубина : 16 бит
Метод сжатия : С потерями
Размер потока : 284 Мбайт (20%)
Выравнивание : Разделение по промежуткам
Продолжительность промежутка : 40 мс. (1,00 видеокадр)
Время предзагрузки промежутка : 500 мс.
Download / Скачать

Хотите скачать бесплатно? Зарегистрируйтесь на сайте (ссылка на регистрацию). Pirat.ca - самый быстрый торрент трекер в рунете!

Как скачивать  ·   Что такое торрент  ·   Рейтинг и ограничения

Пост 30-Окт-2014 08:47 (спустя 6 часов)

Топик был перенесен из форума Наше кино (Трюм) в форум Новинки (HD|DVD|BD| TV|SAT|PDTV| - Rips)
LPPI
 

ZiminY

Гроза морей

3244

Пост 30-Окт-2014 09:17 (спустя 7 часов)

[Q] 

Посмотрим на трудных подростков. В наше время не было коррекционных классов и домашнего обучения. Спасибо!!! Лови бочку

_________________
[Профиль]  [ЛС] 

Jek@

Легенда

Пост 30-Окт-2014 15:59 (спустя 6 часов)

[Q] 

Спасибо!!! .
[Профиль]  [ЛС] 

ягжин

Гроза морей

Пост 30-Окт-2014 17:51 (спустя 1 час 51 минута)

[Q] 

Спасибо! Супер!
[Профиль]  [ЛС] 

co6aka 6e3 yxa

Морской Волк

Пост 30-Окт-2014 19:00 (спустя 1 час 9 минут)

[Q] 

Фильм заставляет задуматься....кино про детей, но для родителей. Оценка 10/10

_________________
А незнакомок мы целуем робко
[Профиль]  [ЛС] 

Han.M

Флибустьер

Пост 30-Окт-2014 19:09 (спустя 8 минут)

[Q] 

Что то странно высокий рейтинг для русского фильма bw
[Профиль]  [ЛС] 

co6aka 6e3 yxa

Морской Волк

Пост 31-Окт-2014 18:14 (спустя 23 часа)

[Q] 

если тебе не 15 лет то посмотри

_________________
А незнакомок мы целуем робко
[Профиль]  [ЛС] 

ZiminY

Гроза морей

3244

Пост 31-Окт-2014 23:30 (спустя 5 часов)

[Q] 

Мне 44, посмотрю. Времени не хватает катастрофически... Скорее бы пенсия!

_________________
[Профиль]  [ЛС] 

Мишки

Морской Волк

Пост 01-Ноя-2014 00:37 (спустя 1 час 6 минут)

[Q] 

599358Мне 44, посмотрю. Времени не хватает катастрофически... Скорее бы пенсия!
Ага, а там смерть. Вот и прошла вся жизнь.

_________________
Это всего лишь игра, настройся на волну позитива!:)
[Профиль]  [ЛС] 

Vladgo

Лоцман

Пост 02-Ноя-2014 11:40 (спустя 1 день 11 часов)

[Q] 

не очень как то
[Профиль]  [ЛС] 

maximka2006

Морской Волк

Пост 02-Ноя-2014 19:49 (спустя 8 часов)

[Q] 

Скачаю, гляну, спс
[Профиль]  [ЛС] 

KoNiaL_KCC

Гроза морей

Пост 02-Ноя-2014 23:57 (спустя 4 часа)

[Q] 

бредятина полная. На любителя
[Профиль]  [ЛС] 

xayliod

Штурман

Пост 03-Ноя-2014 12:49 (спустя 12 часов)

[Q] 

Спасибо.Надо посмотреть,надеюсь на лучшее
[Профиль]  [ЛС] 

Пост 02-Дек-2014 21:42 (спустя 29 дней)

Топик был перенесен из форума Новинки (HD|DVD|BD| TV|SAT|PDTV| - Rips) в форум Российские фильмы
kugesan
 

nata456

Шкипер

Пост 07-Янв-2015 14:50 (спустя 2 месяца 4 дня)

[Q] 

Жёсткая реальность.. На любителя
[Профиль]  [ЛС] 
Показать сообщения:    
Ответить на тему

Текущее время: Сегодня 02:23

Часовой пояс: GMT + 4



Вы не можете начинать темы
Вы не можете отвечать на сообщения
Вы не можете редактировать свои сообщения
Вы не можете удалять свои сообщения
Вы не можете голосовать в опросах
Вы не можете прикреплять файлы к сообщениям
Вы не можете скачивать файлы

▼ Вниз