ML
     
  Уважаемый Гость!
Вы можете поддержать проект и зарегистрироваться у наших партнеров - онлайн-стратегия MyLands. При регистрации в игре Вы получите код, который сможете активировать после регистрации на pirat.ca и получить 1000 дублонов.

Ваш код:
1a5b0a965618b2c406d4279ec9924ee6282c60cf
 
     

Корпоратив (Олег Асадулин) [2014 г., комедия, WEB-DLRip] O (iTunes Russia)

Ответить на тему
 
Автор
Сообщение

Пост 07-Ноя-2014 17:02

[Q] 

LPPI

-Корпоратив-«На работе надо работать, а не бухать!»- Производство: Россия, Enjoy Movies
Жанр: комедия
Год выпуска: 2014 г.
Продолжительность: 01:25:05
Российская премьера: 18 сентября 2014, «WDSSPR»
Дата выхода DVD: 6 ноября 2014, «CD Land»-Режиссер: Олег Асадулин
В ролях: Николай Наумов, Владимир Толоконников, Мирослава Карпович, Андрей Федорцов, Аристарх Венес, Марина Федункив, Михаил Башкатов, Максим Виторган, Сергей Белоголовцев, Роман Юнусов-Описание: Игорь — старший менеджер в мебельном салоне, мечтающий о повышении. На следующий день после корпоративной вечеринки он обнаруживает, что салон полностью разгромлен. Сотрудники утверждают, что когда они уходили, всё было в порядке. Игоря это не устраивает, ведь теперь на кону его карьера. Пытаясь выяснить, что же произошло, Игорь узнаёт шокирующие подробности о ночных приключениях своих коллег…- -Качество видео: WEB-DLRip
Контейнер: AVI
Видео кодек: XviD
Аудио кодек: AC3
Видео: 704x400 (1.76:1), 25 fps, XviD build 73 ~2066 kbps avg, 0.29 bit/pixel
Аудио: 48 kHz, AC3 Dolby Digital, 3/2 (L,C,R,l,r) + LFE ch, ~384 kbps - iTunes Russia
Cубтитры: отсутствуют
General
Complete name : D:\Korporativ.2014.WEB-DLRip.avi
Format : AVI
Format/Info : Audio Video Interleave
File size : 1.46 GiB
Duration : 1h 25mn
Overall bit rate : 2 458 Kbps
Writing application : VirtualDubMod 1.5.10.3 (build 2550/release)
Writing library : VirtualDubMod build 2550/release
Video
ID : 0
Format : MPEG-4 Visual
Format profile : Advanced [email protected]
Format settings, BVOP : 1
Format settings, QPel : No
Format settings, GMC : No warppoints
Format settings, Matrix : Default (MPEG)
Codec ID : XVID
Codec ID/Hint : XviD
Duration : 1h 25mn
Bit rate : 2 067 Kbps
Width : 704 pixels
Height : 400 pixels
Display aspect ratio : 16:9
Frame rate : 25.000 fps
Color space : YUV
Chroma subsampling : 4:2:0
Bit depth : 8 bits
Scan type : Progressive
Compression mode : Lossy
Bits/(Pixel*Frame) : 0.294
Stream size : 1.23 GiB (84%)
Writing library : XviD 73
Audio
ID : 1
Format : AC-3
Format/Info : Audio Coding 3
Mode extension : CM (complete main)
Format settings, Endianness : Big
Codec ID : 2000
Duration : 1h 25mn
Bit rate mode : Constant
Bit rate : 384 Kbps
Channel(s) : 6 channels
Channel positions : Front: L C R, Side: L R, LFE
Sampling rate : 48.0 KHz
Bit depth : 16 bits
Compression mode : Lossy
Stream size : 234 MiB (16%)
Alignment : Split accross interleaves
Interleave, duration : 64 ms (1.60 video frames)
Interleave, preload duration : 500 ms
Title : Russian
Download / Скачать

Хотите скачать бесплатно? Зарегистрируйтесь на сайте (ссылка на регистрацию). Pirat.ca - самый быстрый торрент трекер в рунете!

Как скачивать  ·   Что такое торрент  ·   Рейтинг и ограничения

GENERALLEE

Лоцман

Пост 07-Ноя-2014 23:23 (спустя 6 часов)

[Q] 

Фильм унылое г
[Профиль]  [ЛС] 

gnezd77

Флибустьер

Пост 07-Ноя-2014 23:35 (спустя 11 минут)

[Q] 

На любителя Вы лучшие!
[Профиль]  [ЛС] 

dp

Корсар

Пост 08-Ноя-2014 08:50 (спустя 9 часов)

[Q] 

все наши фильмы на один лад, а вобе
602541Фильм унылое г

_________________
Мог стать отличным пианистом, а стал поскудным программистом
[Профиль]  [ЛС] 

Vinyard

Корсар

Пост 08-Ноя-2014 13:23 (спустя 4 часа)

[Q] 

спасибо. уберегли.
сегодня наталия медведева расхваливала этот фильм. чуть не вляпался. очередной самый лучший фильм с тнт-шными медийными лицами:-(
[Профиль]  [ЛС] 

Relax

Морской Волк

Пост 08-Ноя-2014 14:56 (спустя 1 час 32 минуты)

[Q] 

попробую посмотреть на унылое г
но раздающему все-равно Спасибо!!!
[Профиль]  [ЛС] 

relaks76

Штурман

Пост 08-Ноя-2014 20:19 (спустя 5 часов)

[Q] 

Фильм Г..о!Автору респект!
[Профиль]  [ЛС] 

Vinyard

Корсар

Пост 08-Ноя-2014 21:26 (спустя 1 час 7 минут)

[Q] 

Ох коварный фри лич! Что же ты творишь с моим жестким диском?
[Профиль]  [ЛС] 

денис19780923

Штурман

Пост 09-Ноя-2014 07:33 (спустя 10 часов)

[Q] 

НЕ ИНТЕРЕСНО.
[Профиль]  [ЛС] 

srg078rus

Корсар

97

Пост 10-Ноя-2014 18:55 (спустя 1 день 11 часов)

[Q] 

Лови бочку

_________________
[Профиль]  [ЛС] 

al_vlasenko

Лоцман

Пост 11-Ноя-2014 16:46 (спустя 21 час)

[Q] 

Редкая хрень!!!!! Трафик потрачен зря!
[Профиль]  [ЛС] 

Han.M

Флибустьер

Пост 11-Ноя-2014 17:17 (спустя 31 минута)

[Q] 

очередной российский шлак...
[Профиль]  [ЛС] 

redfield

Шкипер

Пост 15-Ноя-2014 00:47 (спустя 3 дня)

[Q] 

полный бред, что они курят
[Профиль]  [ЛС] 

FatestaR

150

Пост 15-Ноя-2014 09:28 (спустя 8 часов)

[Q] 

604067очередной российский шлак...
не стоит обобщать - есть в России и нормальные фильмы(не имею ввиду этот).

_________________


[Профиль]  [ЛС] 

AlexYstasu

Морской Волк

Пост 16-Ноя-2014 04:15 (спустя 18 часов)

[Q] 

Абсолютный мусор. Зря потраченные время на просмотр.

_________________
Core I5, R9 270x. 8gb, asus z77
[Профиль]  [ЛС] 

diman3737

Пост 17-Ноя-2014 17:56 (спустя 1 день 13 часов)

[Q] 

Посмотрел за три захода,чтоб узнать что лошадь виновата!!!
[Профиль]  [ЛС] 

Пост 11-Дек-2014 08:17 (спустя 23 дня)

Топик был перенесен из форума Новинки (HD|DVD|BD| TV|SAT|PDTV| - Rips) в форум Российские фильмы
kugesan
 

корочка хлеба

Лоцман

Пост 29-Окт-2015 22:11 (спустя 11 месяцев 12 дней)

[Q] 

Ну наконец то и я решил глянуть чо там было то - дайте качнуть эту хрень! ))))

_________________
Подпись отключена за нарушение правил форума
[Профиль]  [ЛС] 

platon18

Гроза морей

Пост 04-Ноя-2015 09:25 (спустя 5 дней)

[Q] 

похоже все из КВН полезли в кино
[Профиль]  [ЛС] 
Показать сообщения:    
Ответить на тему

Текущее время: Сегодня 23:50

Часовой пояс: GMT + 4



Вы не можете начинать темы
Вы не можете отвечать на сообщения
Вы не можете редактировать свои сообщения
Вы не можете удалять свои сообщения
Вы не можете голосовать в опросах
Вы не можете прикреплять файлы к сообщениям
Вы не можете скачивать файлы

▼ Вниз