ML
     
  Уважаемый Гость!
Вы можете поддержать проект и зарегистрироваться у наших партнеров - онлайн-стратегия MyLands. При регистрации в игре Вы получите код, который сможете активировать после регистрации на pirat.ca и получить 1000 дублонов.

Ваш код:
bc31d8aef74c92e19ad67e34a8fa63c3b9b812fb
 
     

Смешанные чувства (Георгий Малков) [2014 г., комедия, DVDRip] (Лицензия)

Ответить на тему
 
Автор
Сообщение

Пост 15-Ноя-2014 18:17

[Q] 

LPPI

-Смешанные чувства- Производство: Россия, Enjoy Movies
Жанр: комедия
Год выпуска: 2014 г.
Продолжительность: 01:25:03
Российская премьера: 2 октября 2014, «Каропрокат»
Дата выхода DVD: 13 ноября 2014, «CD Land»-Режиссер: Георгий Малков
В ролях: Александр Ревва, Павел Деревянко, Татьяна Космачева, Артем Сучков, Максим Коновалов, Эмиль Никогосян, Вадим Цаллати, Мария Сёмкина, Александр Булатов, Раиса Рязанова-Описание: Они настолько разные, что не должны были пересечься в обычной жизни. Фил — бывшая звезда 90-х, прославившийся в свое время одной единственной песней. Теперь он работает ди-джеем, завидует Олегу Газманову и не выносит ответственности. Петр — врач-карьерист, сухарь и педант. Записывает на диктофон свои планы на день, боится пригласить девушку на свидание и знать не знает кто такой Газманов.
После электрошока они начинают испытывать чувства друг друга. Когда одному больно, то от боли вздрагивает и другой, когда одному из них страшно, то пугается и второй. Смеется один, непроизвольный смех у другого. Веселая жизнь и острые эмоции Фила рушат сначала системную размеренную работу Пети, а затем появляется проблема посерьезнее, когда вслед за Петей в его девушку влюбляется и Фил.-Сэмпл КиноПоиск-Качество видео: DVDRip
Контейнер: AVI
Видео кодек: XviD
Аудио кодек: AC3
Видео: 720x384 (1.88:1), 25 fps, XviD build 73 ~1994 kbps avg, 0.29 bit/pixel
Аудио: 48 kHz, AC3 Dolby Digital, 3/2 (L,C,R,l,r) + LFE ch, ~448 kbps
Cубтитры: отсутствуют
General
Complete name : D:\Smeshannye.chuvstva.2014.O.DVDRip.avi
Format : AVI
Format/Info : Audio Video Interleave
File size : 1.46 GiB
Duration : 1h 25mn
Overall bit rate : 2 452 Kbps
Writing application : VirtualDubMod 1.5.10.3 | www.virtualdub-fr.org || (build 2550/release)
Writing library : VirtualDubMod build 2550/release
Video
ID : 0
Format : MPEG-4 Visual
Format profile : Advanced [email protected]
Format settings, BVOP : 1
Format settings, QPel : No
Format settings, GMC : No warppoints
Format settings, Matrix : Custom
Codec ID : XVID
Codec ID/Hint : XviD
Duration : 1h 25mn
Bit rate : 1 995 Kbps
Width : 720 pixels
Height : 384 pixels
Display aspect ratio : 1.85:1
Frame rate : 25.000 fps
Color space : YUV
Chroma subsampling : 4:2:0
Bit depth : 8 bits
Scan type : Progressive
Compression mode : Lossy
Bits/(Pixel*Frame) : 0.289
Stream size : 1.19 GiB (81%)
Writing library : XviD 73
Audio
ID : 1
Format : AC-3
Format/Info : Audio Coding 3
Mode extension : CM (complete main)
Format settings, Endianness : Big
Codec ID : 2000
Duration : 1h 25mn
Bit rate mode : Constant
Bit rate : 448 Kbps
Channel(s) : 6 channels
Channel positions : Front: L C R, Side: L R, LFE
Sampling rate : 48.0 KHz
Bit depth : 16 bits
Compression mode : Lossy
Stream size : 273 MiB (18%)
Alignment : Split accross interleaves
Interleave, duration : 40 ms (1.00 video frame)
Interleave, preload duration : 500 ms
Download / Скачать

Хотите скачать бесплатно? Зарегистрируйтесь на сайте (ссылка на регистрацию). Pirat.ca - самый быстрый торрент трекер в рунете!

Как скачивать  ·   Что такое торрент  ·   Рейтинг и ограничения

gnezd77

Флибустьер

Пост 15-Ноя-2014 20:09 (спустя 1 час 51 минута)

[Q] 

На любителя Для любителей современных Русских комедий..
[Профиль]  [ЛС] 

Vintorezov REG 39

Легенда

176

Пост 15-Ноя-2014 23:58 (спустя 3 часа)

[Q] 

Спасибо за качество.
[Профиль]  [ЛС] 

Albina66ru

Шкипер

Пост 16-Ноя-2014 10:28 (спустя 10 часов)

[Q] 

ревввввааа жжет)))
[Профиль]  [ЛС] 

Rigel

Лоцман

Пост 16-Ноя-2014 11:54 (спустя 1 час 25 минут)

[Q] 

Подождем обзора BadComedian
[Профиль]  [ЛС] 

Виктор SaNiTaR

Шкипер

Пост 16-Ноя-2014 22:42 (спустя 10 часов)

[Q] 

Как-то слабенько.. На раз, как по мне.

_________________
vk.com/viktorzuevsanitar
[Профиль]  [ЛС] 

sanches76

Штурман

Пост 17-Ноя-2014 00:09 (спустя 1 час 26 минут)

[Q] 

Вечер убить пойдёт! А что вы хотели от начинающего режиссёра? Шедевра?
[Профиль]  [ЛС] 

Vintorezov REG 39

Легенда

176

Пост 21-Ноя-2014 19:40 (спустя 4 дня)

[Q] 

Реву в цирк клоуном. Сидел бы в своём камеди и не дёргался бездарь.
[Профиль]  [ЛС] 

Пост 20-Дек-2014 17:18 (спустя 28 дней)

Топик был перенесен из форума Новинки (HD|DVD|BD| TV|SAT|PDTV| - Rips) в форум Российские фильмы
kugesan
 
Показать сообщения:    
Ответить на тему

Текущее время: Сегодня 11:59

Часовой пояс: GMT + 4



Вы не можете начинать темы
Вы не можете отвечать на сообщения
Вы не можете редактировать свои сообщения
Вы не можете удалять свои сообщения
Вы не можете голосовать в опросах
Вы не можете прикреплять файлы к сообщениям
Вы не можете скачивать файлы

▼ Вниз