ML
     
  Уважаемый Гость!
Вы можете поддержать проект и зарегистрироваться у наших партнеров - онлайн-стратегия MyLands. При регистрации в игре Вы получите код, который сможете активировать после регистрации на pirat.ca и получить 1000 дублонов.

Ваш код:
4855957e17f50c5c1236a0f8c4492b2b0bba00a0
 
     

Корпоратив (Олег Асадулин) [2014 г., Комедия, DVDRip] [Лицензия]

Ответить на тему
 
Автор
Сообщение

Пост 23-Ноя-2014 15:11

[Q] 

ara1205

-Корпоратив-- Производство: Россия
Год выпуска: 2014 г.
Жанр: Комедия
Продолжительность: 01:25:10-Режиссер: Олег Асадулин-В ролях: Николай Наумов, Владимир Толоконников, Мирослава Карпович, Андрей Федорцов, Аристарх Венес, Марина Федункив, Михаил Башкатов, Максим Виторган, Сергей Белоголовцев, Роман Юнусов-Описание: Игорь - старший менеджер в мебельном салоне, мечтающий о повышении. На следующий день после корпоративной вечеринки он обнаруживает, что салон полностью разгромлен. Сотрудники утверждают, что когда они уходили, всё было в порядке. Игоря это не устраивает, ведь теперь на кону его карьера. Пытаясь выяснить, что же произошло, Игорь узнаёт шокирующие подробности о ночных приключениях своих коллег...- -Качество видео: DVDRip
Контейнер: AVI
Видео кодек: XviD
Аудио кодек: MP3
Видео: 656x352, 25,000 fps, 1085 kbps avg, 0.188 bit/pixel
Аудио: 48 kHz, MPEG Layer 3, 2 ch, ~128.00 kbps avg
Cубтитры: отсутствуют-
Общее
Полное имя : C:\Users\Ромик\Pictures\Корпоратив\Korporativ.2014.DVDRip.745Mb.avi
Формат : AVI
Формат/Информация : Audio Video Interleave
Размер файла : 745 Мбайт
Продолжительность : 1 ч. 25 м.
Общий поток : 1222 Кбит/сек
Название фильма : Korporativ.2014.DVDRip.745Mb.[pirat.ca]
Программа кодирования : VirtualDubMod 1.5.10.2 (build 2540/release)
Примечание : http://pirat.ca
Видео
Идентификатор : 0
Формат : MPEG-4 Visual
Профиль формата : Advanced [email protected]
Параметр BVOP формата : 2
Параметр QPel формата : Нет
Параметр GMC формата : Без точки перехода
Параметр матрицы формата : Default (MPEG)
Идентификатор кодека : XVID
Идентификатор кодека/Подсказка : XviD
Продолжительность : 1 ч. 25 м.
Битрейт : 1085 Кбит/сек
Ширина : 656 пикселей
Высота : 352 пикселя
Соотношение сторон : 1,85:1
Частота кадров : 25,000 кадров/сек
Цветовое пространство : YUV
Субдискретизация насыщенности : 4:2:0
Битовая глубина : 8 бит
Тип развёртки : Прогрессивная
Метод сжатия : С потерями
Бит/(Пиксели*Кадры) : 0.188
Размер потока : 661 Мбайт (89%)
Библиотека кодирования : XviD 65
Аудио
Идентификатор : 1
Формат : MPEG Audio
Версия формата : Version 1
Профиль формата : Layer 3
Идентификатор кодека : 55
Идентификатор кодека/Подсказка : MP3
Продолжительность : 1 ч. 25 м.
Вид битрейта : Постоянный
Битрейт : 128 Кбит/сек
Каналы : 2 канала
Частота : 48,0 КГц
Метод сжатия : С потерями
Размер потока : 78,0 Мбайт (10%)
Выравнивание : Соединение по промежуткам
Продолжительность промежутка : 40 мс. (1,00 видеокадр)
Время предзагрузки промежутка : 504 мс.
Библиотека кодирования : LAMELAME_MAJOR_VERSI
-
-
-
Download / Скачать

Хотите скачать бесплатно? Зарегистрируйтесь на сайте (ссылка на регистрацию). Pirat.ca - самый быстрый торрент трекер в рунете!

Как скачивать  ·   Что такое торрент  ·   Рейтинг и ограничения

Vanek2012

Морской Волк

Пост 23-Ноя-2014 20:32 (спустя 5 часов)

[Q] 

неужели это кто-то смотрит
[Профиль]  [ЛС] 

antondeus

Лоцман

Пост 23-Ноя-2014 20:35 (спустя 2 минуты)

[Q] 

блин... после предыдущего комментатора даже пропало желание трейлер посмотреть))
[Профиль]  [ЛС] 

koton

Лоцман

Пост 23-Ноя-2014 22:47 (спустя 2 часа 12 минут)

[Q] 

аналогично )))
[Профиль]  [ЛС] 

Zasedatelev

Морской Волк

Пост 24-Ноя-2014 00:42 (спустя 1 час 54 минуты)

[Q] 

Угораздило просмотреть данное творение, ради эксперимента. Как на это вообще кто нибудь выделил деньги не понятно. Что в голове у упыря, который снял ЭТО - тоже не ясно, но совершенно очевидно - что там медвежий фарш вместо мозгов. Сброд, который участвует в действии - это не актёры, абсолютно точно (ну кроме Васи Рогова и Дукалиса, видимо их сюда занесла нелёгкая судьба безденежья). Дегенерат Наумов - ему даже перевоплощаться от сериала к фильму и обратно не надо - достаточно быть собой - везде и всюду быть тупым дебилом - этого достаточно.
Этот киноопус назвать дерьмом язык не поворачивается - потому что, дерьмо - это хоть, что-то. А эта картинка - просто н и ч т о.
Категорически не смотреть или вы рискуете обрести желание поубивать всех ублюдков, которых увидите на экране.
[Профиль]  [ЛС] 

Борис Ерохин

Лоцман

Пост 24-Ноя-2014 15:03 (спустя 14 часов)

[Q] 

Полная хрень!!!!!!!!!!!!!!!!
[Профиль]  [ЛС] 

Spor87

Лоцман

Пост 27-Дек-2014 02:36 (спустя 1 месяц 2 дня)

[Q] 

Согласен со всеми.Полная херня! Никакого сюжета...фильм ниочём!
[Профиль]  [ЛС] 

Police_3000

Морской Волк

Пост 27-Дек-2014 16:43 (спустя 14 часов)

[Q] 

Отстой!!! Пустая трата времени
[Профиль]  [ЛС] 

Пост 27-Дек-2014 21:16 (спустя 4 часа)

Топик был перенесен из форума Новинки (HD|DVD|BD| TV|SAT|PDTV| - Rips) в форум Российские фильмы
LPPI
 
Показать сообщения:    
Ответить на тему

Текущее время: Сегодня 06:12

Часовой пояс: GMT + 4



Вы не можете начинать темы
Вы не можете отвечать на сообщения
Вы не можете редактировать свои сообщения
Вы не можете удалять свои сообщения
Вы не можете голосовать в опросах
Вы не можете прикреплять файлы к сообщениям
Вы не можете скачивать файлы

▼ Вниз