ML
     
  Уважаемый Гость!
Вы можете поддержать проект и зарегистрироваться у наших партнеров - онлайн-стратегия MyLands. При регистрации в игре Вы получите код, который сможете активировать после регистрации на pirat.ca и получить 1000 дублонов.

Ваш код:
21acd5966619d49ad0b90c3305467b4646cc11a8
 
     

Дневник мамы первоклассника (Андрей Силкин) [2014 г., детский, мелодрама, семейный, DVDRip] [Лицензия]

Ответить на тему
 
Автор
Сообщение

Пост 08-Дек-2014 15:58

[Q] 

ara1205

-Дневник мамы первоклассника-- Производство: Россия
Год выпуска: 2014 г.
Жанр: детский, мелодрама, семейный
Продолжительность: 01:18:12-Режиссер: Андрей Силкин-В ролях: Светлана Ходченкова, Дмитрий Ендальцев, Дима Полунин, Елена Яковлева, Виктор Сухоруков, Галина Польских, Олеся Жураковская, Софья Мицкевич, Арсений Мурзин, Матвей Михалевич-Описание: События в картине разворачиваются в хронологическом порядке с первого родительского собрания до последнего учебного дня первоклассника, освещая самые яркие дни мальчика, его мамы и папы.
Семья Васи — главного героя картины — понимает, как беззаботно им раньше жилось и сколько проблем и тревог приносит школьная пора. За год перед Васей как будто в миниатюре разворачивается целая жизнь. Дружба, первая любовь, муки творчества, предательство, жизнь в коллективе, упорная работа, преодоление «препятствий» — вот что, буквально, как снежный ком, сваливается на голову маленького мальчика. Кто поддержит? Кто объяснит? Кто подскажет? Только единение семьи и школы может помочь ребенку правильно расставить акценты и справиться с трудностями, что в свою очередь вызывает у него гордость за родителей и учителей. Он начинает чувствовать себя увереннее, адаптируясь ко взрослой жизни. Время проходит незаметно. Находясь в лирическом настроении, родители замечают: «Надо же, уже первый класс закончился…- -Качество видео: DVDRip
Контейнер: AVI
Видео кодек: XviD
Аудио кодек: AC3
Видео: 720x384, 25,000 fps, 2045 kbps avg, 0.296 bit/pixel
Аудио: 48 kHz, AC3 Dolby Digital, 3/2 (L,C,R,l,r) + LFE ch, ~448 kbps
Cубтитры: отсутствуют-
Общее
Полное имя : C:\Users\Ромик\Pictures\Дневник мамы первоклассника\Dnevnik.mamy.pervoklassnika.2014.O.DVDRip.1400Mb.avi
Формат : AVI
Формат/Информация : Audio Video Interleave
Размер файла : 1,37 Гбайт
Продолжительность : 1 ч. 18 м.
Общий поток : 2503 Кбит/сек
Программа кодирования : VirtualDubMod 1.5.10.3 | www.virtualdub-fr.org || (build 2550/release)
Библиотека кодирования : VirtualDubMod build 2550/release
Видео
Идентификатор : 0
Формат : MPEG-4 Visual
Профиль формата : Advanced [email protected]
Параметр BVOP формата : 2
Параметр QPel формата : Нет
Параметр GMC формата : Без точки перехода
Параметр матрицы формата : Default (MPEG)
Идентификатор кодека : XVID
Идентификатор кодека/Подсказка : XviD
Продолжительность : 1 ч. 18 м.
Битрейт : 2045 Кбит/сек
Ширина : 720 пикселей
Высота : 384 пикселя
Соотношение сторон : 1,85:1
Частота кадров : 25,000 кадров/сек
Цветовое пространство : YUV
Субдискретизация насыщенности : 4:2:0
Битовая глубина : 8 бит
Тип развёртки : Прогрессивная
Метод сжатия : С потерями
Бит/(Пиксели*Кадры) : 0.296
Размер потока : 1,12 Гбайт (82%)
Библиотека кодирования : XviD 1.2.1 (UTC 2008-12-04)
Аудио
Идентификатор : 1
Формат : AC-3
Формат/Информация : Audio Coding 3
Расширение режима : CM (complete main)
Параметр Endianness формата : Big
Идентификатор кодека : 2000
Продолжительность : 1 ч. 18 м.
Вид битрейта : Постоянный
Битрейт : 448 Кбит/сек
Каналы : 6 каналов
Расположение каналов : Front: L C R, Side: L R, LFE
Частота : 48,0 КГц
Битовая глубина : 16 бит
Метод сжатия : С потерями
Размер потока : 251 Мбайт (18%)
Выравнивание : Разделение по промежуткам
Продолжительность промежутка : 40 мс. (1,00 видеокадр)
Время предзагрузки промежутка : 500 мс.
-
-
Download / Скачать

Хотите скачать бесплатно? Зарегистрируйтесь на сайте (ссылка на регистрацию). Pirat.ca - самый быстрый торрент трекер в рунете!

Как скачивать  ·   Что такое торрент  ·   Рейтинг и ограничения

asd999

Лоцман

Пост 08-Дек-2014 16:16 (спустя 18 минут)

[Q] 

Вспомним школу! cr
[Профиль]  [ЛС] 

Jek@

Легенда

Пост 08-Дек-2014 16:29 (спустя 13 минут)

[Q] 

Спасибо!!! .
[Профиль]  [ЛС] 

anatolyul

Морской Волк

Пост 08-Дек-2014 18:02 (спустя 1 час 33 минуты)

[Q] 

забираю Спасибо!!!
[Профиль]  [ЛС] 

иван836

Лоцман

Пост 08-Дек-2014 18:55 (спустя 52 минуты)

[Q] 

Лови бочку Спасибо
[Профиль]  [ЛС] 

Vintorezov REG 39

Легенда

176

Пост 08-Дек-2014 19:10 (спустя 15 минут)

[Q] 

........ Спасибо!!! ........
[Профиль]  [ЛС] 

polozm

Легенда

Пост 08-Дек-2014 22:13 (спустя 3 часа)

[Q] 

Автору респект!!! но трейлер на кинопоиске не вдохновил....

_________________
mac mini -2.0 GHz Intel Core i7/ 8 GB DDR3. /Intel HD 3000(512mb)OS X 10.9 Mavericks
[Профиль]  [ЛС] 

olipov

Легенда

Пост 09-Дек-2014 00:25 (спустя 2 часа 11 минут)

[Q] 

Ку три раза
[Профиль]  [ЛС] 

uzi

Морской Волк

Пост 09-Дек-2014 14:55 (спустя 14 часов)

[Q] 

да и посмотрим наше что-то Автору респект!!!
[Профиль]  [ЛС] 

Лукинофф2

Штурман

Пост 10-Дек-2014 09:03 (спустя 18 часов)

[Q] 

Кто посмотрел, как фильм?
[Профиль]  [ЛС] 

youfate

Корсар

Пост 10-Дек-2014 22:03 (спустя 12 часов)

[Q] 

Фильм стоит посмотреть тем, кто любит семейные фильмы
[Профиль]  [ЛС] 

shyrik21

Морской Волк

Пост 11-Дек-2014 00:22 (спустя 2 часа 19 минут)

[Q] 

Спасибо за фильм bp
[Профиль]  [ЛС] 

anatolyul

Морской Волк

Пост 29-Дек-2014 19:55 (спустя 18 дней)

[Q] 

до конца не досмотрел
На любителя
[Профиль]  [ЛС] 

Пост 09-Янв-2015 16:26 (спустя 10 дней)

Топик был перенесен из форума Новинки (HD|DVD|BD| TV|SAT|PDTV| - Rips) в форум Российские фильмы
kugesan
 

Scorpion7474

Флибустьер

Пост 20-Янв-2015 17:49 (спустя 21 день)

[Q] 

Лови бочку
[Профиль]  [ЛС] 

ТАЛИ

Корсар

Пост 03-Май-2015 21:24 (спустя 3 месяца 14 дней)

[Q] 

Похвальная попытка сделать доброе семейное кино. Но вроде и тема большинству близка и моменты забавные в фильме есть,особенно радует бабушка, а в целом фильм скучноват, на троечку. Дети играют плохо, хотя занимают не малое место в фильме и могли бы подобрать малышей поталантливее или с этими получше поработать. А папа - вообще какой-то квелый, как на антидепрессантах. На любителя Раздающему респект!
[Профиль]  [ЛС] 
Показать сообщения:    
Ответить на тему

Текущее время: Сегодня 23:17

Часовой пояс: GMT + 4



Вы не можете начинать темы
Вы не можете отвечать на сообщения
Вы не можете редактировать свои сообщения
Вы не можете удалять свои сообщения
Вы не можете голосовать в опросах
Вы не можете прикреплять файлы к сообщениям
Вы не можете скачивать файлы

▼ Вниз