ML
     
  Уважаемый Гость!
Вы можете поддержать проект и зарегистрироваться у наших партнеров - онлайн-стратегия MyLands. При регистрации в игре Вы получите код, который сможете активировать после регистрации на pirat.ca и получить 1000 дублонов.

Ваш код:
062e2babcc491faeb40d496cf9a498ac3df6cdd0
 
     

Другой берег (Владимир Басов, Ольга Басова) [2014 г., Драма, SATRip]

Ответить на тему
 
Автор
Сообщение

Пост 08-Дек-2014 16:19

[Q] 

ara1205

-Другой берег-- Производство: Россия
Год выпуска: 2014 г.
Жанр: Драма
Продолжительность: 01:34:37-Режиссер: Владимир Басов, Ольга Басова-В ролях: Леонид Архангельский, Мария Аниканова, Егор Баринов, Андрей Казаков, Полина Филоненко, Анна Скиданова, Никита Пикалов-Описание: Блистательная Ксения Конюхова, выпускница консерватории и МГИМО, отзывается от карьеры дипломата и возвращается в родной городок из-за болезни отца. Там ее жизнь круто изменяется: она начинает свой бизнес, выходит замуж и становится одной из самых преуспевающих женщин. У нее есть все: семья, верная подруга, большой дом, деньги. Ксении завидуют. Многим кажется, что она рождена для счастья, везения и радостей. Всё эти иллюзии разрушаются в самый неподходящий момент: на свадьбе ее дочери. Ксения исчезает…- -Качество видео: SATRip
Контейнер: AVI
Видео кодек: DivX
Аудио кодек: MP3
Видео: 720x400, 25,000 fps, 2070 kbps avg, 0.287 bit/pixel
Аудио: 48 kHz, MPEG Layer 3, 2 ch, ~128.00 kbps avg
Cубтитры: отсутствуют-
Общее
Полное имя : C:\Users\Ромик\Pictures\Другой берег\Bereg.avi
Формат : AVI
Формат/Информация : Audio Video Interleave
Размер файла : 1,46 Гбайт
Продолжительность : 1 ч. 34 м.
Общий поток : 2211 Кбит/сек
Библиотека кодирования : Boilsoft AVI tool build 30012/release
Видео
Идентификатор : 0
Формат : MPEG-4 Visual
Параметр BVOP формата : Да
Параметр QPel формата : Нет
Параметр GMC формата : Без точки перехода
Параметр матрицы формата : Default (H.263)
Идентификатор кодека : DX50
Идентификатор кодека/Подсказка : DivX 5
Продолжительность : 1 ч. 34 м.
Битрейт : 2070 Кбит/сек
Ширина : 720 пикселей
Высота : 400 пикселей
Соотношение сторон : 16:9
Частота кадров : 25,000 кадров/сек
Цветовое пространство : YUV
Субдискретизация насыщенности : 4:2:0
Битовая глубина : 8 бит
Тип развёртки : Прогрессивная
Метод сжатия : С потерями
Бит/(Пиксели*Кадры) : 0.287
Размер потока : 1,37 Гбайт (94%)
Библиотека кодирования : Intel(R) MPEG-4 encoder based on Intel(R) IPP 6.1 build 137.20[6.1.137.763]
Аудио
Идентификатор : 1
Формат : MPEG Audio
Версия формата : Version 1
Профиль формата : Layer 3
Режим : Joint stereo
Расширение режима : MS Stereo
Идентификатор кодека : 55
Идентификатор кодека/Подсказка : MP3
Продолжительность : 1 ч. 34 м.
Вид битрейта : Постоянный
Битрейт : 128 Кбит/сек
Каналы : 2 канала
Частота : 48,0 КГц
Метод сжатия : С потерями
Размер потока : 86,6 Мбайт (6%)
Выравнивание : Соединение по промежуткам
Продолжительность промежутка : 24 мс. (0,60 видеокадр)
Время предзагрузки промежутка : 504 мс.
Библиотека кодирования : LAME3.98.2
-
-
Download / Скачать

Хотите скачать бесплатно? Зарегистрируйтесь на сайте (ссылка на регистрацию). Pirat.ca - самый быстрый торрент трекер в рунете!

Как скачивать  ·   Что такое торрент  ·   Рейтинг и ограничения

Vintorezov REG 39

Легенда

176

Пост 08-Дек-2014 19:12 (спустя 2 часа 53 минуты)

[Q] 

........ Спасибо!!! Лови бочку ........
[Профиль]  [ЛС] 

diman3737

Пост 08-Дек-2014 19:59 (спустя 47 минут)

[Q] 

..................... Лови бочку
[Профиль]  [ЛС] 

diman3737

Пост 09-Дек-2014 20:08 (спустя 1 день)

[Q] 

Не смог досмотреть.
[Профиль]  [ЛС] 

Пост 09-Янв-2015 16:18 (спустя 30 дней)

Топик был перенесен из форума Новинки (HD|DVD|BD| TV|SAT|PDTV| - Rips) в форум Российские фильмы
kugesan
 
Показать сообщения:    
Ответить на тему

Текущее время: Сегодня 17:40

Часовой пояс: GMT + 4



Вы не можете начинать темы
Вы не можете отвечать на сообщения
Вы не можете редактировать свои сообщения
Вы не можете удалять свои сообщения
Вы не можете голосовать в опросах
Вы не можете прикреплять файлы к сообщениям
Вы не можете скачивать файлы

▼ Вниз