ML
     
  Уважаемый Гость!
Вы можете поддержать проект и зарегистрироваться у наших партнеров - онлайн-стратегия MyLands. При регистрации в игре Вы получите код, который сможете активировать после регистрации на pirat.ca и получить 1000 дублонов.

Ваш код:
156f85568ae63e45e07ac461c96a83ba1a876b0a
 
     

9 дней и одно утро (Вера Сторожева) [2014 г., драма, DVDRip] [Лицензия]

Ответить на тему
 
Автор
Сообщение

Пост 12-Дек-2014 14:07

[Q] 

ara1205

-9 дней и одно утро-- Производство: Россия
Год выпуска: 2014 г.
Жанр: драма
Продолжительность: 01:24:39-Режиссер: Вера Сторожева-В ролях: Анна Щербинина, Ольга Попова, Ксавье Галле, Сергей Пускепалис, Глеб Пускепалис, Светлана Тома, Сергей Попов, Максим Битюков, Лариса Кривцова, Татьяна Медведева...-Описание: Анна, парижская фотомодель, лицо известной косметической фирмы с благотворительной акцией приезжает в старинный русский город. Здесь в детдоме прошло ее детство, но много лет назад Анну удочерила супружеская пара из Франции. Жизнь девушки, казалось бы, устроилась благополучно. Но за девять дней в родных местах Анне предстоит узнать тайну своей настоящей семьи и найти себя…- -Качество видео: DVDRip
Контейнер: AVI
Видео кодек: XviD
Аудио кодек: AC3
Видео: 720x384, 25 fps, 2006 kbps, 0.290 bit/pixel
Аудио: 48 kHz, AC3 Dolby Digital, 3/2 (L,C,R,l,r) + LFE ch, ~448 kbps
Cубтитры: отсутствуют-
Общее
Полное имя : C:\Users\Ромик\Pictures\9 дней и одно утро\9 дней и одно утро.DVDRip.2014.avi
Формат : AVI
Формат/Информация : Audio Video Interleave
Размер файла : 1,46 Гбайт
Продолжительность : 1 ч. 24 м.
Общий поток : 2463 Кбит/сек
Программа кодирования : VirtualDubMod 1.5.10.3 | www.virtualdub-fr.org || (build 2550/release)
Библиотека кодирования : VirtualDubMod build 2550/release
Видео
Идентификатор : 0
Формат : MPEG-4 Visual
Профиль формата : Advanced [email protected]
Параметр BVOP формата : 1
Параметр QPel формата : Нет
Параметр GMC формата : Без точки перехода
Параметр матрицы формата : Выборочная
Идентификатор кодека : XVID
Идентификатор кодека/Подсказка : XviD
Продолжительность : 1 ч. 24 м.
Битрейт : 2006 Кбит/сек
Ширина : 720 пикселей
Высота : 384 пикселя
Соотношение сторон : 1,85:1
Частота кадров : 25,000 кадров/сек
Цветовое пространство : YUV
Субдискретизация насыщенности : 4:2:0
Битовая глубина : 8 бит
Тип развёртки : Прогрессивная
Метод сжатия : С потерями
Бит/(Пиксели*Кадры) : 0.290
Размер потока : 1,19 Гбайт (81%)
Библиотека кодирования : XviD 73
Аудио
Идентификатор : 1
Формат : AC-3
Формат/Информация : Audio Coding 3
Расширение режима : CM (complete main)
Параметр Endianness формата : Big
Идентификатор кодека : 2000
Продолжительность : 1 ч. 24 м.
Вид битрейта : Постоянный
Битрейт : 448 Кбит/сек
Каналы : 6 каналов
Расположение каналов : Front: L C R, Side: L R, LFE
Частота : 48,0 КГц
Битовая глубина : 16 бит
Метод сжатия : С потерями
Размер потока : 271 Мбайт (18%)
Выравнивание : Разделение по промежуткам
Продолжительность промежутка : 40 мс. (1,00 видеокадр)
Время предзагрузки промежутка : 500 мс.
-
-
Download / Скачать

Хотите скачать бесплатно? Зарегистрируйтесь на сайте (ссылка на регистрацию). Pirat.ca - самый быстрый торрент трекер в рунете!

Как скачивать  ·   Что такое торрент  ·   Рейтинг и ограничения

vovan200976

Флибустьер

Пост 12-Дек-2014 15:20 (спустя 1 час 12 минут)

[Q] 

47: СПАСИБО!!!
На форуме  [Профиль]  [ЛС] 

diman3737

Пост 12-Дек-2014 15:44 (спустя 23 минуты)

[Q] 

Спасибо,посмотрим. Лови бочку
[Профиль]  [ЛС] 

Jek@

Легенда

Пост 12-Дек-2014 15:49 (спустя 5 минут)

[Q] 

Спасибо!!! .
[Профиль]  [ЛС] 

Vintorezov REG 39

Легенда

176

Пост 12-Дек-2014 18:36 (спустя 2 часа 46 минут)

[Q] 

......... Спасибо!!! .........
[Профиль]  [ЛС] 
Показать сообщения:    
Ответить на тему

Текущее время: Сегодня 21:58

Часовой пояс: GMT + 4



Вы не можете начинать темы
Вы не можете отвечать на сообщения
Вы не можете редактировать свои сообщения
Вы не можете удалять свои сообщения
Вы не можете голосовать в опросах
Вы не можете прикреплять файлы к сообщениям
Вы не можете скачивать файлы

▼ Вниз