ML
     
  Уважаемый Гость!
Вы можете поддержать проект и зарегистрироваться у наших партнеров - онлайн-стратегия MyLands. При регистрации в игре Вы получите код, который сможете активировать после регистрации на pirat.ca и получить 1000 дублонов.

Ваш код:
1a5b0a965618b2c406d4279ec9924ee6282c60cf
 
     

Тайна тёмной комнаты (Ольга Беляева) [2014 г., приключения, детский, DVDRip] [Лицензия]

Ответить на тему
 
Автор
Сообщение

Пост 12-Дек-2014 14:55

[Q] 

ara1205

-Тайна тёмной комнаты-- Производство: Россия
Год выпуска: 2014 г.
Жанр: приключения, детский
Продолжительность: 01:16:27-Режиссер: Ольга Беляева-В ролях: Сергей Никоненко, Виктор Сухоруков, Галина Польских, Ирина Скобцева, Константин Крюков, Иван Агапов, Екатерина Воронина, Нина Маслова, Егор Губарев, Андрей Попович-Описание: Два школьника решают исследовать таинственное окно, появляющееся на стене их дома в полночь во время полнолуния. Проникнув туда и оказавшись в тёмной комнате, они и не подозревают, какие приключения ждут их впереди…- -Качество видео: DVDRip
Контейнер: AVI
Видео кодек: XviD
Аудио кодек: AC3
Видео: 720x384, 25 fps, 2102 kbps, 0.304 bit/pixel
Аудио: 48 kHz, AC3 Dolby Digital, 3/2 (L,C,R,l,r) + LFE ch, ~448 kbps
Cубтитры: отсутствуют-
Общее
Полное имя : C:\Users\Ромик\Pictures\Тайна тёмной комнаты\Tajna.tjomnoj.komnaty.2014.O.DVDRip.1400Mb.avi
Формат : AVI
Формат/Информация : Audio Video Interleave
Размер файла : 1,37 Гбайт
Продолжительность : 1 ч. 16 м.
Общий поток : 2560 Кбит/сек
Программа кодирования : VirtualDubMod 1.5.10.3 | www.virtualdub-fr.org || (build 2550/release)
Библиотека кодирования : VirtualDubMod build 2550/release
Видео
Идентификатор : 0
Формат : MPEG-4 Visual
Профиль формата : Advanced [email protected]
Параметр BVOP формата : 2
Параметр QPel формата : Нет
Параметр GMC формата : Без точки перехода
Параметр матрицы формата : Default (MPEG)
Идентификатор кодека : XVID
Идентификатор кодека/Подсказка : XviD
Продолжительность : 1 ч. 16 м.
Битрейт : 2102 Кбит/сек
Ширина : 720 пикселей
Высота : 384 пикселя
Соотношение сторон : 1,85:1
Частота кадров : 25,000 кадров/сек
Цветовое пространство : YUV
Субдискретизация насыщенности : 4:2:0
Битовая глубина : 8 бит
Тип развёртки : Прогрессивная
Метод сжатия : С потерями
Бит/(Пиксели*Кадры) : 0.304
Размер потока : 1,12 Гбайт (82%)
Библиотека кодирования : XviD 1.2.1 (UTC 2008-12-04)
Аудио
Идентификатор : 1
Формат : AC-3
Формат/Информация : Audio Coding 3
Расширение режима : CM (complete main)
Параметр Endianness формата : Big
Идентификатор кодека : 2000
Продолжительность : 1 ч. 16 м.
Вид битрейта : Постоянный
Битрейт : 448 Кбит/сек
Каналы : 6 каналов
Расположение каналов : Front: L C R, Side: L R, LFE
Частота : 48,0 КГц
Битовая глубина : 16 бит
Метод сжатия : С потерями
Размер потока : 245 Мбайт (18%)
Выравнивание : Разделение по промежуткам
Продолжительность промежутка : 40 мс. (1,00 видеокадр)
Время предзагрузки промежутка : 500 мс.
-
-
Download / Скачать

Хотите скачать бесплатно? Зарегистрируйтесь на сайте (ссылка на регистрацию). Pirat.ca - самый быстрый торрент трекер в рунете!

Как скачивать  ·   Что такое торрент  ·   Рейтинг и ограничения

lkas1010

Корсар

Пост 12-Дек-2014 15:26 (спустя 31 минута)

[Q] 

Спасибо!Посмотрим. Автору респект!!!
На форуме  [Профиль]  [ЛС] 

Jek@

Легенда

Пост 12-Дек-2014 15:50 (спустя 24 минуты)

[Q] 

Спасибо!!! .
[Профиль]  [ЛС] 

viktor41

Шкипер

Пост 12-Дек-2014 21:42 (спустя 5 часов)

[Q] 

ara1205, Спасибо! Мне понравилось
[Профиль]  [ЛС] 

СерВолк

Корсар

Пост 12-Дек-2014 22:07 (спустя 24 минуты)

[Q] 

и всио то им интересно позырить ag
[Профиль]  [ЛС] 

tlife

Штурман

Пост 13-Дек-2014 01:54 (спустя 3 часа)

[Q] 

как фильм? стоит посмотреть?
[Профиль]  [ЛС] 

malefik

Корсар

Пост 13-Дек-2014 11:00 (спустя 9 часов)

[Q] 

616903как фильм? стоит посмотреть?
трудно сказать....рейтинг по кинопоиску 5 баллов...значит только половине понравился.
и то что иностранцам его не стали показывать - тоже смущает....
так что надо составлять свое мнение
[Профиль]  [ЛС] 

viewpoint

Шкипер

28

Пост 25-Дек-2014 20:43 (спустя 12 дней)

[Q] 

616903как фильм? стоит посмотреть?
Фильм снят при финансовой поддержке Министерства культуры Российской Федерации...
"о поиске и воспитании истинных духовных и нравственных ценностей современной молодежи"
Можно посмотреть, а можно и не смотреть cx
[Профиль]  [ЛС] 

KoNiaL_KCC

Гроза морей

Пост 25-Дек-2014 23:37 (спустя 2 часа 54 минуты)

[Q] 

Раздающему респект! На любителя фильм не понравился.
[Профиль]  [ЛС] 

Urlhtml

Корсар

Пост 26-Дек-2014 19:25 (спустя 19 часов)

[Q] 

Автору респект!!! Пиратка рулез!!!
[Профиль]  [ЛС] 

anatolyul

Морской Волк

Пост 29-Дек-2014 19:53 (спустя 3 дня)

[Q] 

На любителя
второй раз смотреть не стану
[Профиль]  [ЛС] 
Показать сообщения:    
Ответить на тему

Текущее время: Сегодня 23:53

Часовой пояс: GMT + 4



Вы не можете начинать темы
Вы не можете отвечать на сообщения
Вы не можете редактировать свои сообщения
Вы не можете удалять свои сообщения
Вы не можете голосовать в опросах
Вы не можете прикреплять файлы к сообщениям
Вы не можете скачивать файлы

▼ Вниз