ML
     
  Уважаемый Гость!
Вы можете поддержать проект и зарегистрироваться у наших партнеров - онлайн-стратегия MyLands. При регистрации в игре Вы получите код, который сможете активировать после регистрации на pirat.ca и получить 1000 дублонов.

Ваш код:
8b29d0f8cd61fe457e59e7df0aa1fab41a2b88b9
 
     

Высоцкий. Спасибо, что живой (Петр Буслов) [2011 г., драма, биография, HDRip]

Ответить на тему
 
Автор
Сообщение

Пост 20-Янв-2012 10:27

[Q] 

zyyx

--Высоцкий. Спасибо, что живой
«Два часа настоящей жизни»
-- Год выпуска: 2011
Мировая премьера: 1 декабря 2011
Российская премьера: 1 декабря 2011, «WDSSPR»
Дата выхода DVD: 19 января 2012, «Флагман-Трейд»
Страна: Россия
Жанр: драма, биография
Продолжительность: 02:12:08
Перевод: Не требуется [Лицензия]
Режиссер: Петр Буслов
В ролях: Оксана Акиньшина, Сергей Безруков, Андрей Смоляков, Иван Ургант, Максим Леонидов, Андрей Панин, Владимир Ильин, Дмитрий Астрахан, Анна Ардова, Владимир Меньшов
Описание: Действие фильма разворачивается в 1979 году, когда на одном из концертов Высоцкому становится плохо с сердцем. Он переживает клиническую смерть.
Источник/Качество: HDRip | Сэмпл
Формат: AVI
Видео кодек: XviD
Аудио кодек: AC3
Видео: 720x304 (2.37:1), 23.976 fps, XviD MPEG-4 ~1089 kbps avg, 0.21 bit/pixel
Аудио: 48 kHz, AC3 Dolby Digital, 3/2 (L,C,R,l,r) + LFE ch, ~384 kbps
General
Complete name : F:\Новая папка\Vusotzkij.2011.O.HDRip.1400Mb.avi
Format : AVI
Format/Info : Audio Video Interleave
File size : 1.37 GiB
Duration : 2h 12mn
Overall bit rate : 1 483 Kbps
Writing application : VirtualDubMod 1.5.10.3 | www.virtualdub-fr.org || (build 2550/release)
Writing library : VirtualDubMod build 2550/release
Video
ID : 0
Format : MPEG-4 Visual
Format profile : [email protected]
Format settings, BVOP : Yes
Format settings, QPel : No
Format settings, GMC : No warppoints
Format settings, Matrix : Custom
Muxing mode : Packed bitstream
Codec ID : XVID
Codec ID/Hint : XviD
Duration : 2h 12mn
Bit rate : 1 090 Kbps
Width : 720 pixels
Height : 304 pixels
Display aspect ratio : 2.35:1
Frame rate : 23.976 fps
Resolution : 24 bits
Colorimetry : 4:2:0
Scan type : Progressive
Bits/(Pixel*Frame) : 0.208
Stream size : 1.01 GiB (73%)
Writing library : XviD 58
Audio
ID : 1
Format : AC-3
Format/Info : Audio Coding 3
Codec ID : 2000
Duration : 2h 12mn
Bit rate mode : Constant
Bit rate : 384 Kbps
Channel(s) : 6 channels
Channel positions : Front: L C R, Surround: L R, LFE
Sampling rate : 48.0 KHz
Stream size : 363 MiB (26%)
Alignment : Split accross interleaves
Interleave, duration : 42 ms (1.00 video frame)
Interleave, preload duration : 500 ms
Download / Скачать

Хотите скачать бесплатно? Зарегистрируйтесь на сайте (ссылка на регистрацию). Pirat.ca - самый быстрый торрент трекер в рунете!

Как скачивать  ·   Что такое торрент  ·   Рейтинг и ограничения

wic777

Корсар

Пост 20-Янв-2012 13:02 (спустя 2 часа 34 минуты)

[Q] 

спасибо!!!
[Профиль]  [ЛС] 

Пост 20-Янв-2012 19:08 (спустя 6 часов)

Топик был перенесен из форума Наше Кино в форум Новинки (HD|DVD|BD|TV|SAT|PDTV| - Rips)

goxakrauter
 

dron161rus

Шкипер

Пост 20-Янв-2012 21:48 (спустя 8 часов)

[Q] 

Спасибо, с женой давно ждали!
[Профиль]  [ЛС] 

smartboy

Корсар

Пост 20-Янв-2012 22:37 (спустя 49 минут)

[Q] 

Спасибо,
[Профиль]  [ЛС] 

papa_doc

Штурман

Пост 22-Янв-2012 09:54 (спустя 1 день 11 часов)

[Q] 

Спасибо!
[Профиль]  [ЛС] 

MOPRK

Флибустьер

Пост 23-Янв-2012 19:34 (спустя 1 день 9 часов)

[Q] 

Спасибо посмотрим!!!!!!!!!!!!
[Профиль]  [ЛС] 

E-RTY

Флибустьер

30

Пост 24-Янв-2012 22:42 (спустя 1 день 3 часа)

[Q] 

просто и с удовольствием смотрим!!!!
[Профиль]  [ЛС] 

denisoo9

Лоцман

Пост 25-Янв-2012 01:38 (спустя 2 часа 56 минут)

[Q] 

как фильм?стоит смотреть?
[Профиль]  [ЛС] 

BAMBU4a

Морской Волк

262

Пост 25-Янв-2012 17:08 (спустя 15 часов)

[Q] 

Фильм вродь ниче. Но напрягает ходячая маска Высоцкого. Лучше бы подобрали по сходству актера, пусть даже не очень. ИМХО

_________________

PEREDOVAYA.COM.UA
[Профиль]  [ЛС] 

baltimor337

Корсар

Пост 25-Янв-2012 19:11 (спустя 2 часа 2 минуты)

[Q] 

спс
[Профиль]  [ЛС] 

IVANMEN

Штурман

Пост 30-Апр-2012 16:26 (спустя 3 месяца 4 дня)

[Q] 

Спасибо.
[Профиль]  [ЛС] 

rock_rebel

Корсар

227

Пост 13-Май-2012 06:47 (спустя 12 дней)

[Q] 

так и не понял понравился мне фильм или нет)))
с одной стороны вроде хороший фильм,а с другой...и смотреть наверно не стоит...вообщем не знаю...

_________________
Здесь каждый гад хочет стать депутатом,
Чтоб ездить по странам и эмиратам,
А я хочу стать пулей в стволе,
Чтоб помнили гады всегда обо мне.
[Профиль]  [ЛС] 

antis1962

Корсар

Пост 24-Авг-2012 00:08 (спустя 3 месяца 10 дней)

[Q] 

Нет,наверное не стоит.Выдернули один день из жизни Поэта.Не самый лучший...
[Профиль]  [ЛС] 
Показать сообщения:    
Ответить на тему

Текущее время: Сегодня 21:25

Часовой пояс: GMT + 4



Вы не можете начинать темы
Вы не можете отвечать на сообщения
Вы не можете редактировать свои сообщения
Вы не можете удалять свои сообщения
Вы не можете голосовать в опросах
Вы не можете прикреплять файлы к сообщениям
Вы не можете скачивать файлы

▼ Вниз