ML
     
  Уважаемый Гость!
Вы можете поддержать проект и зарегистрироваться у наших партнеров - онлайн-стратегия MyLands. При регистрации в игре Вы получите код, который сможете активировать после регистрации на pirat.ca и получить 1000 дублонов.

Ваш код:
2a3da67fd641d69eeebb7cb965232435a70eaa24
 
     

Василиса ( Антон Сиверс) [2014, История, Мелодрама, WEBRip-AVC]

Ответить на тему
 
Автор
Сообщение

Пост 20-Дек-2014 19:32

[Q] 

naryshev

Флибустьер

Василиса-- Год выпуска: 2014
Производство: Россия
Жанр: История, Мелодрама
Режиссер: Антон Сиверс
Продюсер: Андрей Смирнов, Юрий Сапронов, Михаил Вавилов
Актеры:
Светлана Ходченкова, Дмитрий Соломыкин, Жером Кузан, Кристина Кузьмина, Игорь Черневич, Андрей Ильин,
Ирина Розанова, Илья Носков, Андрей Носков, Жоанн Морио
Описание фильма:
Он дворянин, а она - крепостная крестьянка... Им не суждено быть вместе. Возможно, так и закончилась бы эта любовная история, если бы не ВОЙНА.
Наполеон вторгся в пределы Российской Империи, и этот день изменил привычный уклад и сословные предрассудки.
Мир больше никогда не станет прежним. Война пишет новую историю любви.

Сэмпл
КиноПоиск
Дата российской премьеры: 4 декабря 2014, «Парадиз»
Продолжительность: 01:35:54-Качество видео: WEBRip-AVC
Контейнер: MKV
Видео кодек: XviD
Аудио кодек: AC3
Видео: 1024x576 (16:9), 24.000 fps, MPEG-4 AVC/H.264 ~2 028 Kbps, 0.143 bit/pixel
Аудио: 48.0 KHz, AC-3, 2/0 (L,R) ch, ~256 Kbps (Original)-
Complete name \Василиса.2014. WEBRip.mkv
Format : Matroska
Format version : Version 2
File size : 1.56 GiB
Duration : 1h 35mn
Overall bit rate : 2 330 Kbps
Movie name : Василиса
Encoded date : UTC 2014-12-14 18:16:44
Writing application : mkvmerge v5.8.0 ('No Sleep / Pillow') built on Sep 2 2012 15:37:04
Writing library : libebml v1.2.3 + libmatroska v1.3.0
Video
ID : 1
Format : AVC
Format/Info : Advanced Video Codec
Format profile : [url=mailto:[email protected]][email protected][/url]
Format settings, CABAC : Yes
Format settings, ReFrames : 6 frames
Codec ID : V_MPEG4/ISO/AVC
Duration : 1h 35mn
Bit rate : 2 028 Kbps
Width : 1 024 pixels
Height : 576 pixels
Display aspect ratio : 16:9
Frame rate mode : Constant
Frame rate : 24.000 fps
Color space : YUV
Chroma subsampling : 4:2:0
Bit depth : 8 bits
Scan type : Progressive
Bits/(Pixel*Frame) : 0.143
Stream size : 1.36 GiB (87%)
Default : Yes
Forced : No
Audio
ID : 2
Format : AC-3
Format/Info : Audio Coding 3
Mode extension : CM (complete main)
Format settings, Endianness : Big
Codec ID : A_AC3
Duration : 1h 35mn
Bit rate mode : Constant
Bit rate : 256 Kbps
Channel(s) : 2 channels
Channel positions : Front: L R
Sampling rate : 48.0 KHz
Bit depth : 16 bits
Compression mode : Lossy
Stream size : 176 MiB (11%)
Default : Yes
Forced : No
Скриншоты:
Download / Скачать

Хотите скачать бесплатно? Зарегистрируйтесь на сайте (ссылка на регистрацию). Pirat.ca - самый быстрый торрент трекер в рунете!

Как скачивать  ·   Что такое торрент  ·   Рейтинг и ограничения

naryshev ®

Флибустьер

8217

Пост 21-Дек-2014 10:16 (спустя 14 часов)

[Q] 

А у меня в профиле статус "Шкипер" (был "Штурман"- я точно помню), это хорошо или плохо, как узнать что за субординация...

_________________
[Профиль]  [ЛС] 

kugesan

56710

Пост 21-Дек-2014 12:43 (спустя 2 часа 26 минут)

[Q] 

619967А у меня в профиле статус "Шкипер" (был "Штурман"- я точно помню), это хорошо или плохо, как узнать что за субординация...
Читай)))

_________________

В мире две бесконечности: вселенная и человеческая глупость - Альберт Эйнштен
«Можно вытащить человека из грязи, но нельзя вытащить грязь из человека»!
[Профиль]  [ЛС] 

Пост 21-Дек-2014 12:43 (спустя 35 секунд)

Топик был перенесен из форума Наше кино (Трюм) в форум Новинки (HD|DVD|BD| TV|SAT|PDTV| - Rips)
kugesan
 

Vinyard

Корсар

Пост 21-Дек-2014 12:55 (спустя 11 минут)

[Q] 

спасибо. но ходченкова откровенно раздражает. слишком много ее в последнее время. качну ради Ирины Розановой.
[Профиль]  [ЛС] 

naryshev ®

Флибустьер

8217

Пост 21-Дек-2014 13:13 (спустя 17 минут)

[Q] 

Евгений, спасибо... Т.о. получается что нужно ещё и почаще писать сообщения чтобы заработать бонусы...Понятно

_________________
[Профиль]  [ЛС] 

stopo4ka

Морской Волк

Пост 21-Дек-2014 13:44 (спустя 31 минута)

[Q] 

спасибо, поглядеть будем

_________________
летящий лом не остановишь
[Профиль]  [ЛС] 

youfate

Корсар

Пост 21-Дек-2014 13:49 (спустя 4 минуты)

[Q] 

Скачаю, посмотрю, Автору респект!!!
[Профиль]  [ЛС] 

D_J_Instruktor

Лоцман

Пост 21-Дек-2014 21:24 (спустя 7 часов)

[Q] 

Спасибо, посмотрим.
[Профиль]  [ЛС] 

stopo4ka

Морской Волк

Пост 22-Дек-2014 14:47 (спустя 17 часов)

[Q] 

фильм лажа.. к сожалению... ожидал намного лучшей игры актеров. Главный герой по моему чем то похож на Янковского... хотя может просто показалось?

_________________
летящий лом не остановишь
[Профиль]  [ЛС] 

SEGA-poplavok

Лоцман

Пост 22-Дек-2014 15:23 (спустя 35 минут)

[Q] 

Автору,спасибо,за старание!
Фильм слабенький... Лови бочку
На форуме  [Профиль]  [ЛС] 

italiano711

Гроза морей

Пост 22-Дек-2014 16:43 (спустя 1 час 19 минут)

[Q] 

Да, что-то отзывы не очень...
Качну сам посмотрю...
[Профиль]  [ЛС] 

dimdroll

Лоцман

Пост 22-Дек-2014 19:58 (спустя 3 часа)

[Q] 

фильм не о чем...(( разочарован
[Профиль]  [ЛС] 

naryshev ®

Флибустьер

8217

Пост 22-Дек-2014 21:14 (спустя 1 час 16 минут)

[Q] 

dimdroll, Jedem das seine или suum cuique

_________________
[Профиль]  [ЛС] 

femaxx

Корсар

Пост 22-Дек-2014 21:50 (спустя 36 минут)

[Q] 

Ну ты юморист... Отказать
[Профиль]  [ЛС] 

olipov

Легенда

Пост 23-Дек-2014 00:44 (спустя 2 часа 53 минуты)

[Q] 

за труд спасибо
[Профиль]  [ЛС] 
Показать сообщения:    
Ответить на тему

Текущее время: Сегодня 01:14

Часовой пояс: GMT + 4



Вы не можете начинать темы
Вы не можете отвечать на сообщения
Вы не можете редактировать свои сообщения
Вы не можете удалять свои сообщения
Вы не можете голосовать в опросах
Вы не можете прикреплять файлы к сообщениям
Вы не можете скачивать файлы

▼ Вниз