ML
     
  Уважаемый Гость!
Вы можете поддержать проект и зарегистрироваться у наших партнеров - онлайн-стратегия MyLands. При регистрации в игре Вы получите код, который сможете активировать после регистрации на pirat.ca и получить 1000 дублонов.

Ваш код:
bb0cb47ee786a33f751af5a500dd264c9487bfac
 
     

След тигра (Алексей Козлов) [2014 г., Драма, криминал, SATRip]

Ответить на тему
 
Автор
Сообщение

Пост 22-Дек-2014 00:26

[Q] 

cergo

Гроза морей

-След тигра--
Производство: Россия, Студия «КонтАкт продакшн»
Режиссер: Алексей Козлов
Жанр: Драма, криминал
Год выпуска: 2014 г.
Продолжительность: 01:31:13
Российская премьера: 21 декабря 2014
В ролях: Александр Балуев, Алексей Кравченко, Денис Никифоров, Александр Устюгов, Мария Порошина, Мария Пирогова, Роман Мадянов, Олег Васильков, Вадим Андреев, Руслан Барабанов, Дин Фан, Никита Рогов-Описание: В небольшом поселке, расположенном в тайге Приморского края, живет потомственный егерь Павел Широков. Однажды на его участке произошло дерзкое преступление: браконьеры отстрелили двух уссурийских тигров. В тот же день сотрудники ДПС остановили на трассе внедорожник. На просьбу открыть багажник пассажиры отреагировали агрессивно, началась перестрелка, и все ее участники погибли. Прибывший на место преступления полковник Хазов обнаружил в багажнике машины убитых тигров и узнал в одном из погибших браконьеров местного охотника-проводника. Хазов уверен: в ближайшие дни преступники будут искать нового человека, который сможет вывести их на след тигра. Он предлагает Широкову опередить браконьеров и выйти к месту нахождения тигра первыми, чтобы успеть предотвратить убийство животного. Уже в тайге, практически выследив уссурийского тигра, Широков понимает, что попал в смертельную ловушку…- -Качество видео: SATRip
Контейнер: AVI
Видео кодек: XviD
Аудио кодек: MP3
Видео: 720x448 (1.61:1), 25 fps, XviD build 50 ~1799 kbps avg, 0.22 bit/pixel
Аудио: 48 kHz, MPEG Layer 3, 2 ch, ~128.00 kbps avg
Cубтитры: отсутствуют
Общее
Полное имя : D:\Архив\Фильмы\Sled.tigra.2014.SATRip.avi
Формат : AVI
Формат/Информация : Audio Video Interleave
Размер файла : 1,23 Гбайт
Продолжительность : 1 ч. 31 м.
Общий поток : 1938 Кбит/сек
Программа кодирования : VirtualDubMod 1.5.10.3 | www.virtualdub-fr.org || (build 2550/release)
Библиотека кодирования : VirtualDub build 32507/release
Видео
Идентификатор : 0
Формат : MPEG-4 Visual
Профиль формата : Advanced [email protected]
Параметр BVOP формата : 2
Параметр QPel формата : Нет
Параметр GMC формата : Без точки перехода
Параметр матрицы формата : Default (MPEG)
Идентификатор кодека : XVID
Идентификатор кодека/Подсказка : XviD
Продолжительность : 1 ч. 31 м.
Битрейт : 1800 Кбит/сек
Ширина : 720 пикселей
Высота : 448 пикселей
Соотношение сторон : 16:10
Частота кадров : 25,000 кадров/сек
Цветовое пространство : YUV
Субдискретизация насыщенности : 4:2:0
Битовая глубина : 8 бит
Тип развёртки : Прогрессивная
Метод сжатия : С потерями
Бит/(Пиксели*Кадры) : 0.223
Размер потока : 1,15 Гбайт (93%)
Библиотека кодирования : XviD 1.2.1 (UTC 2008-12-04)
Аудио
Идентификатор : 1
Формат : MPEG Audio
Версия формата : Version 1
Профиль формата : Layer 3
Режим : Joint stereo
Идентификатор кодека : 55
Идентификатор кодека/Подсказка : MP3
Продолжительность : 1 ч. 31 м.
Вид битрейта : Постоянный
Битрейт : 128 Кбит/сек
Каналы : 2 канала
Частота : 48,0 КГц
Метод сжатия : С потерями
Размер потока : 83,5 Мбайт (7%)
Выравнивание : Соединение по промежуткам
Продолжительность промежутка : 40 мс. (1,00 видеокадр)
Время предзагрузки промежутка : 504 мс.
Библиотека кодирования : LAME3.99r
Настройки программы : -m j -V 4 -q 2 -lowpass 17 -b 128
Скриншоты
-
Download / Скачать

Хотите скачать бесплатно? Зарегистрируйтесь на сайте (ссылка на регистрацию). Pirat.ca - самый быстрый торрент трекер в рунете!

Как скачивать  ·   Что такое торрент  ·   Рейтинг и ограничения

Пост 22-Дек-2014 00:45 (спустя 19 минут)

Топик был перенесен из форума Наше кино (Трюм) в форум Новинки (HD|DVD|BD| TV|SAT|PDTV| - Rips)
kugesan
 

ss80

Флибустьер

36

Пост 22-Дек-2014 01:13 (спустя 47 минут)

[Q] 

Спасибо!!!
[Профиль]  [ЛС] 

cergo ®

Гроза морей

20061

Пост 22-Дек-2014 01:14 (спустя 1 минута)

[Q] 

620340 Спасибо!!!
az
[Профиль]  [ЛС] 

Vintorezov REG 39

Легенда

176

Пост 22-Дек-2014 01:38 (спустя 24 минуты)

[Q] 

......... Спасибо!!! .........
[Профиль]  [ЛС] 

h5n1

Гроза морей

483

Пост 22-Дек-2014 07:08 (спустя 5 часов)

[Q] 

Лови бочку Спасибо!!!

_________________
«Мы находимся здесь, чтобы внести свой вклад в этот мир. Иначе зачем мы здесь?» S.Jobs
[Профиль]  [ЛС] 

diman3737

Пост 22-Дек-2014 14:25 (спустя 7 часов)

[Q] 

Больше недели искал!Спасибо! Лови бочку
[Профиль]  [ЛС] 

SEGA-poplavok

Лоцман

Пост 22-Дек-2014 15:29 (спустя 1 час 4 минуты)

[Q] 

Спасибо, Балуев и все остальные! Лови бочку
[Профиль]  [ЛС] 

Михалыч9966

Морской Волк

Пост 22-Дек-2014 20:05 (спустя 4 часа)

[Q] 

6 коментариев и никто не написал про фильм Автору респект!!!
[Профиль]  [ЛС] 

Aurums

Корсар

Пост 22-Дек-2014 20:11 (спустя 5 минут)

[Q] 

Жаль нельзя ругаться) очень хочется обозвать этих х... коментаторов
[Профиль]  [ЛС] 

Alexlogin

Гроза морей

105

Пост 22-Дек-2014 20:40 (спустя 28 минут)

[Q] 

Спасибо должно быть интересно
[Профиль]  [ЛС] 

Михалыч9966

Морской Волк

Пост 22-Дек-2014 21:50 (спустя 1 час 10 минут)

[Q] 

фильм отличный, мне понравился! не нудный, диалогов минимум, экшена завались, вобщем в стиле русского боевичка такой. Только одно непонятно, менты наши, а оружие нет
[Профиль]  [ЛС] 

mazur1981

Шкипер

Пост 23-Дек-2014 19:34 (спустя 21 час)

[Q] 

620650фильм отличный, мне понравился! не нудный, диалогов минимум, экшена завались, вобщем в стиле русского боевичка такой. Только одно непонятно, менты наши, а оружие нет
Мне фильм тоже понравился, посмотрел с удовольствием. Про оружие - оружие не наше у зеков, что фсб-шника в тайге сопровождали )
[Профиль]  [ЛС] 

мешок66

Морской Волк

Пост 23-Дек-2014 21:01 (спустя 1 час 26 минут)

[Q] 

смотреть можно,а может даже и нужно.ведь подобные твари продают,не только животных,но и всю страну. Всем качать!!! Лови бочку
[Профиль]  [ЛС] 

rezjus

Корсар

Пост 28-Дек-2014 16:06 (спустя 4 дня)

[Q] 

Фильм зачётный!
[Профиль]  [ЛС] 

sektorram

Морской Волк

Пост 28-Дек-2014 21:54 (спустя 5 часов)

[Q] 

спасибо посмотрим, по вышесказанным отзывам вроде норм Спасибо!!!
[Профиль]  [ЛС] 

vlad732007

Корсар

Пост 31-Дек-2014 14:26 (спустя 2 дня 16 часов)

[Q] 

скчновато, нудновато, туповато... Трафик потрачен зря!
[Профиль]  [ЛС] 

bolin

Флибустьер

Пост 31-Дек-2014 15:06 (спустя 39 минут)

[Q] 

Все в русском стиле побольше всех убить насиловать гнобить и т.д
Автору спасибо за раздачу!
[Профиль]  [ЛС] 

serded74

Морской Волк

Пост 04-Янв-2015 22:44 (спустя 4 дня)

[Q] 

Смотрится легко. Всем качать!!!
[Профиль]  [ЛС] 

denokin

Морской Волк

10

Пост 21-Янв-2015 16:31 (спустя 16 дней)

[Q] 

На обложке, морды протокольные cx
[Профиль]  [ЛС] 

SHERHAN

683

Пост 21-Янв-2015 16:59 (спустя 27 минут)

[Q] 

Фильм отличный, время на просмотр потрачено не зря)

_________________
Рыжий хищник, полосатый,
В меру наглый и усатый,
Днём и ночью он не спит,
Зорко в монитор глядит!
[Профиль]  [ЛС] 

asphilus

Морской Волк

Пост 10-Фев-2015 00:14 (спустя 19 дней)

[Q] 

Фильм понравился
[Профиль]  [ЛС] 

asphilus

Морской Волк

Пост 13-Фев-2015 15:07 (спустя 3 дня)

[Q] 

Отличный фильм, но чуть переиграли
[Профиль]  [ЛС] 
Показать сообщения:    
Ответить на тему

Текущее время: Сегодня 02:22

Часовой пояс: GMT + 4



Вы не можете начинать темы
Вы не можете отвечать на сообщения
Вы не можете редактировать свои сообщения
Вы не можете удалять свои сообщения
Вы не можете голосовать в опросах
Вы не можете прикреплять файлы к сообщениям
Вы не можете скачивать файлы

▼ Вниз