ML
     
  Уважаемый Гость!
Вы можете поддержать проект и зарегистрироваться у наших партнеров - онлайн-стратегия MyLands. При регистрации в игре Вы получите код, который сможете активировать после регистрации на pirat.ca и получить 1000 дублонов.

Ваш код:
ef8b3e8cd07bec918273586d22e5aaf18e0ae925
 
     

Таблетка от слёз (Серик Бейсеуов) [2014 г., мелодрама, SATRip]

Ответить на тему
 
Автор
Сообщение

Пост 22-Дек-2014 13:49

[Q] 

ara1205

-Таблетка от слёз-- Производство: Россия, Украина
Год выпуска: 2014 г.
Жанр: мелодрама
Продолжительность: 01:30:00-Режиссер: Серик Бейсеуов-В ролях: Светлана Павлова, Дмитрий Блажко, Анна Сергеева, Антон Батырев-Описание: Лариса — молодая красивая студентка пединститута. И хотя у нее есть комната в общежитии, там она практически не появляется — вот уже почти год у нее длится роман с Ромой — москвичом из состоятельной семьи. Свое высшее образование Лариса скорее «домучивает ради корочки», ведь она уверена в том, что ее любовь взаимна и до счастливого замужества рукой подать. Правда, в ее планы пока не входят совместные дети. Для Ларисы сейчас главное — посвятить всю себя Роме.
Но все оказывается не так уж здорово. Поняв, что Лариса хочет за него замуж, легкомысленный и привыкший жить за счет родителей раздолбай Роман, испугавшись серьезных отношений, бросает девушку. Даже ситуацию с беременностью Ларисы, приведшую парня в ужас, он планирует использовать с пользой для себя. Лариса понимает, что кроме работы по образованию ей ничего не светит. Среди детей, к которым Лариса вскоре привыкает, есть мальчик Никита. Малыша приводит и забирает отец Максим. Никто и никогда не видел мать Никиты. Он достаточно закрытый и проблемный мальчик, в связи с чем у Ларисы возникает конфликт с его папой, набравший со временем совершенно иные краски.
Судьба приготовила девушке еще множество испытаний на жизненном пути, будто проверяя ее на устойчивость. Выдержит ли наша героиня? Не сломается ли она и сумеет ли разглядеть свое истинное счастье в момент полного отчаяния и разочарования?- -Качество видео: SATRip
Контейнер: AVI
Видео кодек: DivX
Аудио кодек: MP3
Видео: 720x40, 25,000 fps, 1040 kbps avg, 0.283 bit/pixel
Аудио: 48 kHz, MPEG Layer 3, 2 ch, ~128.00 kbps avg
Cубтитры: отсутствуют-
Общее
Полное имя : C:\Users\Ромик\Pictures\Таблетка от слёз\Таблетка от слёз.avi
Формат : AVI
Формат/Информация : Audio Video Interleave
Профиль формата : OpenDML
Размер файла : 1,37 Гбайт
Продолжительность : 1 ч. 29 м.
Общий поток : 2185 Кбит/сек
Видео
Идентификатор : 0
Формат : MPEG-4 Visual
Параметр BVOP формата : Да
Параметр QPel формата : Нет
Параметр GMC формата : Без точки перехода
Параметр матрицы формата : Default (H.263)
Идентификатор кодека : DX50
Идентификатор кодека/Подсказка : DivX 5
Продолжительность : 1 ч. 29 м.
Битрейт : 2040 Кбит/сек
Ширина : 720 пикселей
Высота : 400 пикселей
Соотношение сторон : 16:9
Частота кадров : 25,000 кадров/сек
Цветовое пространство : YUV
Субдискретизация насыщенности : 4:2:0
Битовая глубина : 8 бит
Тип развёртки : Прогрессивная
Метод сжатия : С потерями
Бит/(Пиксели*Кадры) : 0.283
Размер потока : 1,28 Гбайт (93%)
Библиотека кодирования : Intel(R) MPEG-4 encoder based on Intel(R) IPP 6.1 build 137.20[6.1.137.763]
Аудио
Идентификатор : 1
Формат : MPEG Audio
Версия формата : Version 1
Профиль формата : Layer 3
Режим : Joint stereo
Расширение режима : MS Stereo
Идентификатор кодека : 55
Идентификатор кодека/Подсказка : MP3
Продолжительность : 1 ч. 29 м.
Вид битрейта : Постоянный
Битрейт : 128 Кбит/сек
Каналы : 2 канала
Частота : 48,0 КГц
Метод сжатия : С потерями
Размер потока : 82,1 Мбайт (6%)
Выравнивание : Соединение по промежуткам
Продолжительность промежутка : 24 мс. (0,60 видеокадр)
Библиотека кодирования : LAME3.98.2
-
-
Download / Скачать

Хотите скачать бесплатно? Зарегистрируйтесь на сайте (ссылка на регистрацию). Pirat.ca - самый быстрый торрент трекер в рунете!

Как скачивать  ·   Что такое торрент  ·   Рейтинг и ограничения

denokin

Морской Волк

10

Пост 21-Янв-2015 15:46 (спустя 30 дней)

[Q] 

Кто качал?, отпишитесь. . .
[Профиль]  [ЛС] 
Показать сообщения:    
Ответить на тему

Текущее время: Сегодня 18:38

Часовой пояс: GMT + 4



Вы не можете начинать темы
Вы не можете отвечать на сообщения
Вы не можете редактировать свои сообщения
Вы не можете удалять свои сообщения
Вы не можете голосовать в опросах
Вы не можете прикреплять файлы к сообщениям
Вы не можете скачивать файлы

▼ Вниз