ML
     
  Уважаемый Гость!
Вы можете поддержать проект и зарегистрироваться у наших партнеров - онлайн-стратегия MyLands. При регистрации в игре Вы получите код, который сможете активировать после регистрации на pirat.ca и получить 1000 дублонов.

Ваш код:
69f316be79867e9bf99caee9682d20bb11964507
 
     

До свидания мама (Светлана Проскурина) [2014 г., драма, DVDRip] [Лицензия]

Ответить на тему
 
Автор
Сообщение

Пост 22-Дек-2014 16:51

[Q] 

ara1205

-До свидания мама-- Производство: Россия
Год выпуска: 2014 г.
Жанр: драма
Продолжительность: 01:38:18-Режиссер: Светлана Проскурина-В ролях: Даумантас Цюнис, Александра Ребенок, Алексей Вертков, Диана Ганцевскайте, Мария Леонова, Яна Терешина-Описание: Алексей и Анна молодые супруги. Неожиданная встреча Анны с другим мужчиной переворачивает их семейный мир. Любимые становятся чужими, случайный попутчик самым дорогим человеком, а собственный ребенок неудобным препятствием на пути к счастью.- -Качество видео: DVDRip
Контейнер: AVI
Видео кодек: XviD
Аудио кодек: MP3
Видео: 656x368, 25,000 fps, 920 kbps avg, 0.152 bit/pixel
Аудио: 48,0 kHz, MPEG Layer 3, 2 ch, ~128.00 kbps avg
Cубтитры: отсутствуют-
Общее
Полное имя : C:\Users\Ромик\Pictures\До свидания мама\Do.Svidaniya.Mama.2014.DVDRip.745Mb.avi
Формат : AVI
Формат/Информация : Audio Video Interleave
Размер файла : 744 Мбайт
Продолжительность : 1 ч. 38 м.
Общий поток : 1058 Кбит/сек
Название фильма : Do.Svidaniya.Mama.2014.DVDRip.745Mb.[pirat.ca]
Программа кодирования : VirtualDubMod 1.5.10.2 (build 2540/release)
Примечание : http://pirat.ca
Видео
Идентификатор : 0
Формат : MPEG-4 Visual
Профиль формата : Advanced [email protected]
Параметр BVOP формата : 2
Параметр QPel формата : Нет
Параметр GMC формата : Без точки перехода
Параметр матрицы формата : Default (MPEG)
Идентификатор кодека : XVID
Идентификатор кодека/Подсказка : XviD
Продолжительность : 1 ч. 38 м.
Битрейт : 920 Кбит/сек
Ширина : 656 пикселей
Высота : 368 пикселей
Соотношение сторон : 16:9
Частота кадров : 25,000 кадров/сек
Цветовое пространство : YUV
Субдискретизация насыщенности : 4:2:0
Битовая глубина : 8 бит
Тип развёртки : Прогрессивная
Метод сжатия : С потерями
Бит/(Пиксели*Кадры) : 0.152
Размер потока : 647 Мбайт (87%)
Библиотека кодирования : XviD 65
Аудио
Идентификатор : 1
Формат : MPEG Audio
Версия формата : Version 1
Профиль формата : Layer 3
Идентификатор кодека : 55
Идентификатор кодека/Подсказка : MP3
Продолжительность : 1 ч. 38 м.
Вид битрейта : Постоянный
Битрейт : 128 Кбит/сек
Каналы : 2 канала
Частота : 48,0 КГц
Метод сжатия : С потерями
Размер потока : 90,0 Мбайт (12%)
Выравнивание : Соединение по промежуткам
Продолжительность промежутка : 40 мс. (1,00 видеокадр)
Время предзагрузки промежутка : 504 мс.
Библиотека кодирования : LAMELAME_MAJOR_VERSI
-
-
Download / Скачать

Хотите скачать бесплатно? Зарегистрируйтесь на сайте (ссылка на регистрацию). Pirat.ca - самый быстрый торрент трекер в рунете!

Как скачивать  ·   Что такое торрент  ·   Рейтинг и ограничения

MaXoR

Флибустьер

1474

Пост 22-Дек-2014 18:52 (спустя 2 часа 1 минута)

[Q] 

случайный попутчик самым дорогим человеком, а собственный ребенок неудобным препятствием на пути к счастью...
Слов нет прям, вот это сюжет!) Про очередную бл непостоянную женщину.
P.S. И не сказать, что фильм какой-то сексистский, режиссер-то женщина! Если честно, даже немного интересно стало.

_________________
Живы будем - не помрем!
[Профиль]  [ЛС] 

[email protected].ru

Корсар

Пост 22-Дек-2014 19:45 (спустя 52 минуты)

[Q] 

MaXor +овер9000
[Профиль]  [ЛС] 

sunerga

Лоцман

Пост 23-Дек-2014 20:38 (спустя 1 день)

[Q] 

качать то стоит?
[Профиль]  [ЛС] 

Sector_X

Гроза морей

309

Пост 23-Дек-2014 20:42 (спустя 3 минуты)

[Q] 

Рискну глянуть

_________________
[Профиль]  [ЛС] 

sokolov-ml

Морской Волк

Пост 25-Дек-2014 20:10 (спустя 1 день 23 часа)

[Q] 

интрига )))) рискну тоже

_________________
Скорость-как наркотик, либо убивает либо доводит до состояния блаженства.
[Профиль]  [ЛС] 

mich76

Шкипер

Пост 11-Янв-2015 23:38 (спустя 17 дней)

[Q] 

все рискнули... попробую и я ))))))
[Профиль]  [ЛС] 

SonicSlash

Флибустьер

Пост 11-Янв-2015 23:45 (спустя 6 минут)

[Q] 

Не буду рисковать)))

_________________
[Профиль]  [ЛС] 

denokin

Морской Волк

10

Пост 21-Янв-2015 21:27 (спустя 9 дней)

[Q] 

Очередное отечественное художество...
[Профиль]  [ЛС] 

bolikgeko

Гроза морей

211

Пост 22-Янв-2015 17:12 (спустя 19 часов)

[Q] 

так себе На любителя
[Профиль]  [ЛС] 

denis1705

Корсар

Пост 30-Янв-2015 23:19 (спустя 8 дней)

[Q] 

Люди, как фильм шлак? Или глянуть?
[Профиль]  [ЛС] 
Показать сообщения:    
Ответить на тему

Текущее время: Сегодня 14:33

Часовой пояс: GMT + 4



Вы не можете начинать темы
Вы не можете отвечать на сообщения
Вы не можете редактировать свои сообщения
Вы не можете удалять свои сообщения
Вы не можете голосовать в опросах
Вы не можете прикреплять файлы к сообщениям
Вы не можете скачивать файлы

▼ Вниз