ML
     
  Уважаемый Гость!
Вы можете поддержать проект и зарегистрироваться у наших партнеров - онлайн-стратегия MyLands. При регистрации в игре Вы получите код, который сможете активировать после регистрации на pirat.ca и получить 1000 дублонов.

Ваш код:
ef8b3e8cd07bec918273586d22e5aaf18e0ae925
 
     

Ночной дозор [Расширенная версия] (Тимур Бекмамбетов) [2004 г., фантастика, триллер, боевик, фэнтези, экранизация, DVDRip]

Ответить на тему
 
Автор
Сообщение

Пост 08-Янв-2015 20:19

[Q] 

AnastasWolf

Ночной дозор-Расширенная версия- Год выпуска: 2004 г.
Производство: Россия , Fox Searchlight Pictures
Жанр: фантастика, триллер, боевик, фэнтези, экранизация
Продолжительность: 01:57:24
Российская премьера: 27 июня 2004, «Гемини»
Мировая премьера: 8 июля 2004
Режиссёр: Тимур Бекмамбетов
В ролях: Константин Хабенский, Владимир Меньшов, Валерий Золотухин, Мария Порошина, Галина Тюнина, Гоша Куценко, Алексей Чадов, Жанна Фриске, Илья Лагутенко, Виктор Вержбицкий
Описание: Все знают, что на ночных улицах опасно. Но в данном случае речь идёт не о преступниках и маньяках. Когда наступает ночь и силы Зла властвуют безраздельно, можно столкнуться с теми, с кем не встретишься днём — тёмными магами, вампирами и прочей нечистью. Их сила столь велика, что справиться с ними обычным оружием невозможно.
Но по следу «ночных охотников» идут те, кто веками сражается с порождениями сумрака и побеждает их, неукоснительно соблюдая при этом Договор, заключённый тысячелетия тому назад между Светлыми и Тёмными… Имя им — Ночной Дозор. Их предназначение — сохранение равновесия между Добром и Злом, нарушение которого вызывает разрушения, войны, революции, вселенские катастрофы.
Каждый плохой человеческий поступок — измена, предательство, убийство, равно, как и хороший, ложится на чашу весов, перевешивая их то в одну, то в другую сторону. Именно поэтому и силы Света, и силы Тьмы вынуждены существовать в двух мирах: реальном и потустороннем, пытаясь либо подтолкнуть человека к греху, либо отвратить от него…
По мотивам одноимённого романа Сергея Лукьяненко.
- *6.5 *6.0Качество видео: DVDRip
Контейнер: AVI
Видео кодек: XviD
Аудио кодек: AC3
Видео: 720x384 (1.85:1), 2196 kbps, 25 fps, 0.318 bit/pixel
Аудио: 448 kbps, 6 ch, 48.0 kHz
Cубтитры: отсутствуют
Главные отличия от международной:
- Пролог и эпилог на русском языке.
- Оригинальные диалоги Гесера и Ольги относительно экспозиции Иных.
- Егор смотрит мультик про домовёнка Кузю, а не серию "Баффи".
- Есть две большие сюжетные линии: линия Игната (Гоша Куценко) и линия семейной пары в самолёте, которые урезали из международной версии.
- В титрах песня "Ночной дозор" группы УмаТурман.
Общее
Полное имя : Ночной дозор.(расширенная версия).2004.[DVDRip].avi
Формат : AVI
Формат/Информация : Audio Video Interleave
Профиль формата : OpenDML
Размер файла : 2,18 Гбайт
Продолжительность : 1 ч. 57 м.
Общий поток : 2656 Кбит/сек
Программа кодирования : VirtualDubMod 1.5.10.2 (build 2540/release)
Библиотека кодирования : VirtualDubMod build 2540/release
Видео
Идентификатор : 0
Формат : MPEG-4 Visual
Профиль формата : Advanced [email protected]
Параметр BVOP формата : 1
Параметр QPel формата : Нет
Параметр GMC формата : Без точки перехода
Параметр матрицы формата : Default (MPEG)
Идентификатор кодека : XVID
Идентификатор кодека/Подсказка : XviD
Продолжительность : 1 ч. 57 м.
Битрейт : 2196 Кбит/сек
Ширина : 720 пикселей
Высота : 384 пикселя
Соотношение сторон : 1,85:1
Частота кадров : 25,000 кадров/сек
Цветовое пространство : YUV
Субдискретизация насыщенности : 4:2:0
Битовая глубина : 8 бит
Тип развёртки : Прогрессивная
Метод сжатия : С потерями
Бит/(Пиксели*Кадры) : 0.318
Размер потока : 1,80 Гбайт (83%)
Библиотека кодирования : XviD 1.2.1 (UTC 2008-12-04)
Аудио
Идентификатор : 1
Формат : AC-3
Формат/Информация : Audio Coding 3
Расширение режима : CM (complete main)
Параметр Endianness формата : Big
Идентификатор кодека : 2000
Продолжительность : 1 ч. 57 м.
Вид битрейта : Постоянный
Битрейт : 448 Кбит/сек
Каналы : 6 каналов
Расположение каналов : Front: L C R, Side: L R, LFE
Частота : 48,0 КГц
Битовая глубина : 16 бит
Метод сжатия : С потерями
Размер потока : 376 Мбайт (17%)
Выравнивание : Разделение по промежуткам
Продолжительность промежутка : 40 мс. (1,00 видеокадр)
Время предзагрузки промежутка : 500 мс.
Download / Скачать

Хотите скачать бесплатно? Зарегистрируйтесь на сайте (ссылка на регистрацию). Pirat.ca - самый быстрый торрент трекер в рунете!

Как скачивать  ·   Что такое торрент  ·   Рейтинг и ограничения

Пост 08-Янв-2015 20:27 (спустя 7 минут)

Топик был перенесен из форума Наше кино (Трюм) в форум Российские фильмы
LPPI
 

Antarres

Легенда

Пост 09-Янв-2015 01:14 (спустя 4 часа)

[Q] 

Thanks!

_________________
[Профиль]  [ЛС] 

SHERHAN

683

Пост 09-Янв-2015 09:38 (спустя 8 часов)

[Q] 

В режиссерской версии картина такая какой ее видит сам режиссер А в театральной та как ее видит продюссер и зачастую люди далекие от искусства.

_________________
Рыжий хищник, полосатый,
В меру наглый и усатый,
Днём и ночью он не спит,
Зорко в монитор глядит!
[Профиль]  [ЛС] 

AnastasWolf ®

3476

Пост 10-Янв-2015 18:17 (спустя 1 день 8 часов)

[Q] 

LPPI, где моя монетка??? anime51

_________________
[Профиль]  [ЛС] 

LeNine

Штурман

Пост 28-Янв-2015 22:35 (спустя 18 дней)

[Q] 

В-общем это тупо русская DVD версия?
[Профиль]  [ЛС] 

AnastasWolf ®

3476

Пост 29-Янв-2015 18:27 (спустя 19 часов)

[Q] 

LeNine, Это расширенная режиссёрская версия. Rip сделан с DVD, но ты в это слаб, к сожалению.
cy

_________________
[Профиль]  [ЛС] 

tse

Морской Волк

Пост 30-Май-2016 00:39 (спустя 1 год 4 месяца)

[Q] 

И где хто? Не качается совсем!
[Профиль]  [ЛС] 
Показать сообщения:    
Ответить на тему

Текущее время: Сегодня 18:37

Часовой пояс: GMT + 4



Вы не можете начинать темы
Вы не можете отвечать на сообщения
Вы не можете редактировать свои сообщения
Вы не можете удалять свои сообщения
Вы не можете голосовать в опросах
Вы не можете прикреплять файлы к сообщениям
Вы не можете скачивать файлы

▼ Вниз