ML
     
  Уважаемый Гость!
Вы можете поддержать проект и зарегистрироваться у наших партнеров - онлайн-стратегия MyLands. При регистрации в игре Вы получите код, который сможете активировать после регистрации на pirat.ca и получить 1000 дублонов.

Ваш код:
74c28610d77aaac24ba694c4128f3b9b46b04220
 
     

Дневной дозор / Day Watch [Режиссёрская версия] (Тимур Бекмамбетов) [2006 г., фантастика, триллер, боевик, фэнтези, экранизация, BDRip]

Ответить на тему
 
Автор
Сообщение

Пост 08-Янв-2015 20:55

[Q] 

AnastasWolf

-Дневной дозор / Day Watch-Режиссёрская версия- Год выпуска: 2006 г.
Производство: Россия , Fox Searchlight Pictures, Первый канал, Кинокомпания Таббак, Базелевс-Продакшн
Жанр: фантастика, триллер, боевик, фэнтези, экранизация
Продолжительность: 02:25:29
Российская премьера: 1 января 2006, «Гемини Киномир»
Мировая премьера: 1 января 2006
Режиссёр: Тимур Бекмамбетов
В ролях: Константин Хабенский, Мария Порошина, Владимир Меньшов, Галина Тюнина, Виктор Вержбицкий, Жанна Фриске, Дмитрий Мартынов, Валерий Золотухин, Алексей Чадов, Нуржуман Ихтымбаев
Описание: Ночью в подъезде своего дома убита молодая женщина. На теле не обнаружено никаких следов насилия… Зыбкое равновесие между Светлыми и Тёмными нарушено. И чаша весов склоняется в сторону Тёмных. Но убитая — Тёмная иная, а значит подозрение падает на Светлых.
Гессер срочно собирает команду: обвинение в убийстве — серьёзная проблема. Он обязан реагировать. И, прежде всего, понять кто где был и чем занимался в указанное Тёмными время. Выясняется, что алиби отсутствует только у Городецкого…
По мотивам одноимённого романа Сергея Лукьяненко.
- *6.6 *6.0Качество видео: BDRip
Контейнер: AVI
Видео кодек: XviD
Аудио кодек: AC3
Видео: 720x304 (2.35:1), 1746 kbps, 23.976 fps, 0.333 bit/pixel
Аудио: 384 kbps, 6 ch, 48.0 kHz
Cубтитры: отсутствуют
Общее
Полное имя : Дневной дозор.(режиссёрская версия).2006.[BDRip].avi
Формат : AVI
Формат/Информация : Audio Video Interleave
Профиль формата : OpenDML
Размер файла : 2,18 Гбайт
Продолжительность : 2 ч. 25 м.
Общий поток : 2142 Кбит/сек
Программа кодирования : VirtualDubModRus 1.5.10.2 (build 2542/release)
Библиотека кодирования : VirtualDubMod build 2542/release
Видео
Идентификатор : 0
Формат : MPEG-4 Visual
Профиль формата : Advanced [email protected]
Параметр BVOP формата : 1
Параметр QPel формата : Нет
Параметр GMC формата : Без точки перехода
Параметр матрицы формата : Выборочная
Идентификатор кодека : XVID
Идентификатор кодека/Подсказка : XviD
Продолжительность : 2 ч. 25 м.
Битрейт : 1746 Кбит/сек
Ширина : 720 пикселей
Высота : 304 пикселя
Соотношение сторон : 2,35:1
Частота кадров : 23,976 кадра/сек
Цветовое пространство : YUV
Субдискретизация насыщенности : 4:2:0
Битовая глубина : 8 бит
Тип развёртки : Прогрессивная
Метод сжатия : С потерями
Бит/(Пиксели*Кадры) : 0.333
Размер потока : 1,78 Гбайт (82%)
Библиотека кодирования : XviD 1.2.1 (UTC 2008-12-04)
Аудио
Идентификатор : 1
Формат : AC-3
Формат/Информация : Audio Coding 3
Расширение режима : CM (complete main)
Параметр Endianness формата : Big
Идентификатор кодека : 2000
Продолжительность : 2 ч. 25 м.
Вид битрейта : Постоянный
Битрейт : 384 Кбит/сек
Каналы : 6 каналов
Расположение каналов : Front: L C R, Side: L R, LFE
Частота : 48,0 КГц
Битовая глубина : 16 бит
Метод сжатия : С потерями
Размер потока : 400 Мбайт (18%)
Выравнивание : Разделение по промежуткам
Продолжительность промежутка : 42 мс. (1,00 видеокадр)
Download / Скачать

Хотите скачать бесплатно? Зарегистрируйтесь на сайте (ссылка на регистрацию). Pirat.ca - самый быстрый торрент трекер в рунете!

Как скачивать  ·   Что такое торрент  ·   Рейтинг и ограничения

Пост 08-Янв-2015 21:11 (спустя 15 минут)

Топик был перенесен из форума Наше кино (Трюм) в форум Российские фильмы
LPPI
 

MaXoR

Флибустьер

1474

Пост 08-Янв-2015 22:19 (спустя 1 час 24 минуты)

[Q] 

В чем отличие от театральной?

_________________
Живы будем - не помрем!
[Профиль]  [ЛС] 

nikolass1989

Корсар

89

Пост 08-Янв-2015 23:05 (спустя 45 минут)

[Q] 

Меня тоже этот вопрос интересует
[Профиль]  [ЛС] 

AnastasWolf ®

3476

Пост 09-Янв-2015 01:51 (спустя 2 часа 45 минут)

[Q] 

MaXoR, nikolass1989, для того, чтобы ответить на этот вопрос, мне придётся качать театральную версию и сравнивать. Не хочу! ;)

_________________
[Профиль]  [ЛС] 

SHERHAN

683

Пост 09-Янв-2015 09:38 (спустя 7 часов)

[Q] 

Главное отличие театральной версии от режиссерской в том, что она максимально адаптирована к интересам среднестатистического зрителя

_________________
Рыжий хищник, полосатый,
В меру наглый и усатый,
Днём и ночью он не спит,
Зорко в монитор глядит!
[Профиль]  [ЛС] 

BraionServ1

Гроза морей

Пост 09-Янв-2015 16:00 (спустя 6 часов)

[Q] 

Главное отличнее скорее в названии вроде этот позор даже по Тв-ящику смотреть ни кто не хочет. Помню годы учебы в технаре такая эйфория у местных поклонников шодоверов Чисто ради интереса взял пиратскую сиди так и не понял от чего они как умалишённые покупали по 10 раз билеты мне 2 часов насилования моего мозга было жалко. Может я ни такой киноман, но хваленые спецэффекты вроде были дороже сборов проката как всегда ни смотря на шумиху с полуголой Фриске
[Профиль]  [ЛС] 

AnastasWolf ®

3476

Пост 10-Янв-2015 18:14 (спустя 1 день 2 часа)

[Q] 

Да, были времена... Ходили и восхищались, что и у нас могут приличную фантастику снять, которую не стыдно за границей показать!

_________________
[Профиль]  [ЛС] 

tse

Морской Волк

Пост 06-Июн-2016 20:34 (спустя 1 год 4 месяца)

[Q] 

Есть живые люди?
[Профиль]  [ЛС] 
Показать сообщения:    
Ответить на тему

Текущее время: Сегодня 10:01

Часовой пояс: GMT + 4



Вы не можете начинать темы
Вы не можете отвечать на сообщения
Вы не можете редактировать свои сообщения
Вы не можете удалять свои сообщения
Вы не можете голосовать в опросах
Вы не можете прикреплять файлы к сообщениям
Вы не можете скачивать файлы

▼ Вниз