ML
     
  Уважаемый Гость!
Вы можете поддержать проект и зарегистрироваться у наших партнеров - онлайн-стратегия MyLands. При регистрации в игре Вы получите код, который сможете активировать после регистрации на pirat.ca и получить 1000 дублонов.

Ваш код:
4399ab8611ee7f8a22949d2ee7634160dd2db7e0
 
     

Тёмный мир: Равновесие (Олег Асадулин) [2013 г., фэнтези, приключения, BDRip-AVC] (Лицензия)

Ответить на тему
 
Автор
Сообщение

Пост 18-Янв-2015 21:26

[Q] 

LPPI

-Тёмный мир: Равновесие-«Скоро твой мир изменится»- Производство: Россия / Централ Партнершип
Жанр: фэнтези, приключения
Год выпуска: 2013 г.
Продолжительность: 01:35:21
Российская премьера: 5 декабря 2013, «Централ Партнершип»
Дата выхода DVD: 17 апреля 2014, «CD Land»-Режиссер: Олег Асадулин
В ролях: Мария Пирогова, Павел Прилучный, Макар Запорожский, Валерия Ланская, Евгения Брик (Хиривская), Александр Ратников, Владислав Абашин, Пётр Семак, Алиса Хазанова, Валерий Опёнкин-Описание: Каждый день они крадут твои силы, твои эмоции, твою любовь. Мы называем их Тени. Работа таких, как мы — доставлять их обратно в Тёмный мир. Надвигается катастрофа, и человечество может оказаться во власти тьмы…
И только мы можем сохранить равновесие.-Сэмпл КиноПоиск-Качество видео: BDRip-AVC
Контейнер: MKV
Видео кодек: MPEG4 AVC
Аудио кодек: AC3
Видео: 1024x576 (16:9), 23.976 fps, 2 525 kbps, 0.18 bit/pixel
Аудио: 48 kHz, AC3 Dolby Digital, 3/2 (L,C,R,l,r) + LFE ch, ~448 kbps
Cубтитры: отсутствуют
General
Unique ID : 246809812943401420923736528269654169772 (0xB9ADD7474B9CF738B2DA0E7DA4D118AC)
Complete name : C:\Users\Ivan\Desktop\Тёмный.мир.Равновесие.2013.O.BDRip-AVC.mkv
Format : Matroska
Format version : Version 4 / Version 2
File size : 1.98 GiB
Duration : 1h 35mn
Overall bit rate : 2 972 Kbps
Movie name : Rip by LPPI
Encoded date : UTC 2015-01-18 16:47:45
Writing application : mkvmerge v7.5.0 ('Glass Culture') 64bit built on Jan 4 2015 16:48:44
Writing library : libebml v1.3.1 + libmatroska v1.4.2
DURATION : 01:35:21.664000000
NUMBER_OF_FRAMES : 178802
NUMBER_OF_BYTES : 320413184
_STATISTICS_WRITING_APP : mkvmerge v7.5.0 ('Glass Culture') 64bit built on Jan 4 2015 16:48:44
_STATISTICS_WRITING_DATE_UT : 2015-01-18 16:47:45
_STATISTICS_TAGS : BPS DURATION NUMBER_OF_FRAMES NUMBER_OF_BYTES
Video
ID : 1
Format : AVC
Format/Info : Advanced Video Codec
Format profile : [email protected]
Format settings, CABAC : Yes
Format settings, ReFrames : 8 frames
Codec ID : V_MPEG4/ISO/AVC
Duration : 1h 35mn
Bit rate : 2 525 Kbps
Width : 1 024 pixels
Height : 576 pixels
Display aspect ratio : 16:9
Frame rate mode : Constant
Frame rate : 23.976 fps
Color space : YUV
Chroma subsampling : 4:2:0
Bit depth : 8 bits
Scan type : Progressive
Bits/(Pixel*Frame) : 0.179
Stream size : 1.64 GiB (83%)
Title : Тёмный мир: Равновесие
Writing library : x264 core 130 r2273 b3065e6
Encoding settings : cabac=1 / ref=8 / deblock=1:-3:-3 / analyse=0x3:0x133 / me=umh / subme=10 / psy=1 / psy_rd=1.00:0.15 / mixed_ref=0 / me_range=32 / chroma_me=1 / trellis=2 / 8x8dct=1 / cqm=0 / deadzone=21,11 / fast_pskip=0 / chroma_qp_offset=-3 / threads=12 / lookahead_threads=2 / sliced_threads=0 / nr=0 / decimate=0 / interlaced=0 / bluray_compat=0 / constrained_intra=0 / bframes=8 / b_pyramid=2 / b_adapt=2 / b_bias=0 / direct=3 / weightb=1 / open_gop=0 / weightp=2 / keyint=250 / keyint_min=23 / scenecut=40 / intra_refresh=0 / rc=2pass / mbtree=0 / bitrate=2525 / ratetol=1.0 / qcomp=0.60 / qpmin=0 / qpmax=69 / qpstep=4 / cplxblur=20.0 / qblur=0.5 / ip_ratio=1.40 / pb_ratio=1.30 / aq=1:1.00
Language : Russian
Default : Yes
Forced : No
DURATION : 01:35:21.684000000
NUMBER_OF_FRAMES : 137183
NUMBER_OF_BYTES : 1803974483
_STATISTICS_WRITING_APP : mkvmerge v7.5.0 ('Glass Culture') 64bit built on Jan 4 2015 16:48:44
_STATISTICS_WRITING_DATE_UT : 2015-01-18 16:47:45
_STATISTICS_TAGS : BPS DURATION NUMBER_OF_FRAMES NUMBER_OF_BYTES
Audio
ID : 2
Format : AC-3
Format/Info : Audio Coding 3
Mode extension : CM (complete main)
Format settings, Endianness : Big
Codec ID : A_AC3
Duration : 1h 35mn
Bit rate mode : Constant
Bit rate : 448 Kbps
Channel(s) : 6 channels
Channel positions : Front: L C R, Side: L R, LFE
Sampling rate : 48.0 KHz
Bit depth : 16 bits
Compression mode : Lossy
Stream size : 306 MiB (15%)
Title : Original
Language : Russian
Default : Yes
Forced : No
Menu
00:00:00.000 : de:Chapter 01
00:03:27.999 : de:Chapter 02
00:11:32.024 : de:Chapter 03
00:20:23.013 : de:Chapter 04
00:29:27.932 : de:Chapter 05
00:38:56.959 : de:Chapter 06
00:44:51.980 : de:Chapter 07
00:53:11.938 : de:Chapter 08
00:59:53.965 : de:Chapter 09
01:09:16.902 : de:Chapter 10
01:20:12.933 : de:Chapter 11
01:31:19.932 : de:Chapter 12
01:35:21.674 : de:Chapter 13
Download / Скачать

Хотите скачать бесплатно? Зарегистрируйтесь на сайте (ссылка на регистрацию). Pirat.ca - самый быстрый торрент трекер в рунете!

Как скачивать  ·   Что такое торрент  ·   Рейтинг и ограничения

Пост 18-Янв-2015 21:33 (спустя 7 минут)

Топик был перенесен из форума Наше кино (Трюм) в форум Российские фильмы
erchine
 

EDVAR

Легенда

Пост 18-Янв-2015 21:54 (спустя 27 минут)

[Q] 

Благодарю дружище!!!

_________________
"Как других судить-вы судьи.Как себя-вы адвокаты"
[Профиль]  [ЛС] 

Antarres

Легенда

Пост 20-Янв-2015 22:53 (спустя 2 дня)

[Q] 

Thanks!

_________________
[Профиль]  [ЛС] 

Сэмэн

Пост 11-Апр-2015 20:55 (спустя 2 месяца 21 день)

[Q] 

Спасибо!!! Огроменное спасибо
[Профиль]  [ЛС] 

MIKE150

Штурман

Пост 12-Апр-2015 15:13 (спустя 18 часов)

[Q] 

Спасибо! Спасибо!!!
[Профиль]  [ЛС] 

grosboy

Флибустьер

Пост 18-Апр-2015 19:43 (спустя 6 дней)

[Q] 

Прикольный! На раз под позитив глянуть само то.

_________________
Щастье есть - его не может не быть...
[Профиль]  [ЛС] 

Алексей78

Юнга

Пост 26-Июл-2015 08:42 (спустя 3 месяца 7 дней)

[Q] 

Спасибо! Спасибо!!!
[Профиль]  [ЛС] 

lexaspirit

Пост 12-Мар-2016 18:31 (спустя 7 месяцев 17 дней)

[Q] 

Учитывая то что филь сняли в России, то стоит отдать должное за старание. Спецэффекты конечно не ахти, но глянуть фильмец для разнообразия стоит

_________________
-------------------- ----------------------
[Профиль]  [ЛС] 
Показать сообщения:    
Ответить на тему

Текущее время: Сегодня 10:48

Часовой пояс: GMT + 4



Вы не можете начинать темы
Вы не можете отвечать на сообщения
Вы не можете редактировать свои сообщения
Вы не можете удалять свои сообщения
Вы не можете голосовать в опросах
Вы не можете прикреплять файлы к сообщениям
Вы не можете скачивать файлы

▼ Вниз