ML
     
  Уважаемый Гость!
Вы можете поддержать проект и зарегистрироваться у наших партнеров - онлайн-стратегия MyLands. При регистрации в игре Вы получите код, который сможете активировать после регистрации на pirat.ca и получить 1000 дублонов.

Ваш код:
dbd0d701284cde74a1f34d06ce20b7bc75a73e75
 
     

Звезда (Анна Меликян) [2014 г., мелодрама, комедия, драма, WEBRip]

Ответить на тему
 
Автор
Сообщение

Пост 20-Янв-2015 21:04

[Q] 

LPPI

-Звезда- Производство: Россия
Жанр: мелодрама, комедия, драма
Год выпуска: 2014 г.
Продолжительность: 02:10:52
Российская премьера: 4 декабря 2014, «WDSSPR»-Режиссер: Анна Меликян
В ролях: Тинатин Далакишвили, Северия Янушаускайте, Павел Табаков, Андрей Смоляков, Юозас Будрайтис, Александр Шейн, Арунас Сторпирстис, Сергей Каплунов, Гоша Куценко, Денис Шведов, Филипп Янковский-Описание: Юная актриса — очаровательная и неуклюжая непосредственность, мечтающая стать настоящей звездой. Роскошная светская львица, жизнь которой в одно мгновение повисла на волоске. Её пятнадцатилетний приёмный сын, уставший от денег и притворства. Такие разные люди, такие тесно переплетенные судьбы…
Изысканный юмор, нежная романтическая линия и драматичные повороты сюжета приведут нас к трогательной развязке, где каждый герой осознает, что для него значит истинное счастье.-Сэмпл КиноПоиск-Качество видео: WEBRip
Контейнер: AVI
Видео кодек: XviD
Аудио кодек: AC3
Видео: 720x400 (1.80:1), 24 fps, XviD build 50 ~1855 kbps avg, 0.27 bit/pixel
Аудио: 48 kHz, AC3 Dolby Digital, 2/0 (L,R) ch, ~384 kbps
Cубтитры: отсутствуют
General
Complete name : D:\ZVeZda.2014.O.WEBRip.2100Mb.avi
Format : AVI
Format/Info : Audio Video Interleave
Format profile : OpenDML
File size : 2.05 GiB
Duration : 2h 10mn
Overall bit rate : 2 246 Kbps
Writing application : VirtualDubMod 1.5.10.2 (build 2540/release)
Writing library : VirtualDubMod build 2540/release
Video
ID : 0
Format : MPEG-4 Visual
Format profile : Advanced [email protected]
Format settings, BVOP : 2
Format settings, QPel : No
Format settings, GMC : No warppoints
Format settings, Matrix : Default (MPEG)
Codec ID : XVID
Codec ID/Hint : XviD
Duration : 2h 10mn
Bit rate : 1 850 Kbps
Width : 720 pixels
Height : 400 pixels
Display aspect ratio : 16:9
Frame rate : 24.000 fps
Color space : YUV
Chroma subsampling : 4:2:0
Bit depth : 8 bits
Scan type : Progressive
Compression mode : Lossy
Bits/(Pixel*Frame) : 0.268
Stream size : 1.69 GiB (82%)
Writing library : XviD 1.2.1 (UTC 2008-12-04)
Audio
ID : 1
Format : AC-3
Format/Info : Audio Coding 3
Mode extension : CM (complete main)
Format settings, Endianness : Big
Codec ID : 2000
Duration : 2h 10mn
Bit rate mode : Constant
Bit rate : 384 Kbps
Channel(s) : 2 channels
Channel positions : Front: L R
Sampling rate : 48.0 KHz
Bit depth : 16 bits
Compression mode : Lossy
Stream size : 359 MiB (17%)
Alignment : Split accross interleaves
Interleave, duration : 42 ms (1.00 video frame)
Interleave, preload duratio : 500 ms
Download / Скачать

Хотите скачать бесплатно? Зарегистрируйтесь на сайте (ссылка на регистрацию). Pirat.ca - самый быстрый торрент трекер в рунете!

Как скачивать  ·   Что такое торрент  ·   Рейтинг и ограничения

EDVAR

Легенда

Пост 20-Янв-2015 21:32 (спустя 27 минут)

[Q] 

Спасибо!!! Раздающему респект!

_________________
"Как других судить-вы судьи.Как себя-вы адвокаты"
[Профиль]  [ЛС] 

Antarres

Легенда

Пост 20-Янв-2015 22:23 (спустя 51 минута)

[Q] 

Thanks !

_________________
[Профиль]  [ЛС] 

Незнайка

Флибустьер

Пост 21-Янв-2015 00:38 (спустя 2 часа 15 минут)

[Q] 

Супер! Лови бочку
[Профиль]  [ЛС] 

Maks_e

Корсар

69

Пост 21-Янв-2015 04:27 (спустя 3 часа)

[Q] 

Спасибо. Лови бочку
[Профиль]  [ЛС] 

petrs_2000

Лоцман

Пост 21-Янв-2015 04:29 (спустя 1 минута)

[Q] 

Смотреть только до конца, иначе нет смысла... Пиратка рулез!!!
[Профиль]  [ЛС] 

Engener

Морской Волк

Пост 21-Янв-2015 08:26 (спустя 3 часа)

[Q] 

Противные все лицы! Скрины из ужастика.На третьем скрине зомби. На последнем расчлененка. Не буду качать, а вы как хотите.

_________________
Остановите Землю, я сойду!
[Профиль]  [ЛС] 

makuha

Шкипер

Пост 21-Янв-2015 09:26 (спустя 59 минут)

[Q] 

Спасибо автору.... Автору респект!!!
[Профиль]  [ЛС] 

Ahzool

Корсар

Пост 21-Янв-2015 09:49 (спустя 23 минуты)

[Q] 

Спасибо!!! Лови бочку на фоне остального отечественного кино, здесь есть идея, которая читается, кино для людей и про людей с их тараканами в голове... мне понравился...релизёру спс!

_________________
Si non es occupatus quid natum moriendo occupatus es,beauty creatur vultus.
[Профиль]  [ЛС] 

Мишки

Морской Волк

Пост 21-Янв-2015 13:50 (спустя 4 часа)

[Q] 

Фильм понравился. Спасибо!

_________________
Это всего лишь игра, настройся на волну позитива!:)
[Профиль]  [ЛС] 

diman3737

Пост 21-Янв-2015 14:42 (спустя 52 минуты)

[Q] 

Чтож,поглядим сей фильм. Автору респект!!!
[Профиль]  [ЛС] 

UA4HQW

Флибустьер

2528

Пост 29-Янв-2015 14:53 (спустя 8 дней)

[Q] 

Хороший фильм. Мне понравился. Автору респект!!!
[Профиль]  [ЛС] 

shalonina

Гроза морей

Пост 29-Янв-2015 20:33 (спустя 5 часов)

[Q] 

Заценим. Спасибо!!!

_________________
[Профиль]  [ЛС] 

XMax

Флибустьер

Пост 04-Фев-2015 14:39 (спустя 5 дней)

[Q] 

Злое кино
Автору респект!!! Лови бочку
[Профиль]  [ЛС] 

zavroi

Штурман

Пост 15-Фев-2015 04:18 (спустя 10 дней)

[Q] 

Очень понравился... Чувства смешанные... но респект, фильм с душой... Лови бочку
[Профиль]  [ЛС] 

bolin

Флибустьер

Пост 15-Фев-2015 17:07 (спустя 12 часов)

[Q] 

Скачаю тоже посмотрю!
Спасибо за раздачу
[Профиль]  [ЛС] 

Дмитров

Морской Волк

Пост 20-Фев-2015 12:47 (спустя 4 дня)

[Q] 

Самым позитивным героем в конце фильма неожиданно оказалась сама ГГ! Фильм рекомендую, особенно начинающим психологам.
[Профиль]  [ЛС] 

Showman

Корсар

Пост 20-Фев-2015 18:40 (спустя 5 часов)

[Q] 

Спасибо! Лови бочку Пиратка рулит!
[Профиль]  [ЛС] 

Пост 23-Фев-2015 16:29 (спустя 2 дня 21 час)

Топик был перенесен из форума Новинки (HD|DVD|BD| TV|SAT|PDTV| - Rips) в форум Российские фильмы
LPPI
 

ТАЛИ

Корсар

Пост 25-Апр-2015 02:59 (спустя 2 месяца 4 дня)

[Q] 

Фильм про мечту. Про ценность жизни. Про любовь. Про власть денег. Про корысть. Про смерть...
Вот такие фильмы нужно выдвигать на Оскары, а не всякую чернуху, типа Левиафана.
Мне понравилось
[Профиль]  [ЛС] 

Hippopotam

Корсар

Пост 21-Июн-2016 04:16 (спустя 1 год 1 месяц)

[Q] 

Трогательное кино. Зацепило, хоть я и не поклонник режиссерши Меликян. Спасибо!!! Одобрямс!
[Профиль]  [ЛС] 
Показать сообщения:    
Ответить на тему

Текущее время: Сегодня 18:34

Часовой пояс: GMT + 4



Вы не можете начинать темы
Вы не можете отвечать на сообщения
Вы не можете редактировать свои сообщения
Вы не можете удалять свои сообщения
Вы не можете голосовать в опросах
Вы не можете прикреплять файлы к сообщениям
Вы не можете скачивать файлы

▼ Вниз