ML
     
  Уважаемый Гость!
Вы можете поддержать проект и зарегистрироваться у наших партнеров - онлайн-стратегия MyLands. При регистрации в игре Вы получите код, который сможете активировать после регистрации на pirat.ca и получить 1000 дублонов.

Ваш код:
4855957e17f50c5c1236a0f8c4492b2b0bba00a0
 
     

Звезда (Анна Меликян) [2014 г., мелодрама, комедия, драма, WEB-DLRip]

Ответить на тему
 
Автор
Сообщение

Пост 21-Янв-2015 15:21

[Q] 

nbdjod

Корсар

-Звезда--«Любовь достойна жизни. Жизнь достойна любви»-- Производство: Россия, Кинокомпания «Магнум», Марс Медиа Энтертейнмент
Режиссер: Анна Меликян
Жанр: мелодрама, комедия, драма
Год выпуска: 2014 г.
Продолжительность: 02:10:52
Мировая премьера: 13 октября 2014
Российская премьера: 4 декабря 2014, «WDSSPR»
Украинская премьера: 4 декабря 2014
В ролях: Тинатин Далакишвили, Северия Янушаускайте, Павел Табаков, Андрей Смоляков, Юозас Будрайтис, Александр Шейн, Арунас Сторпирстис, Сергей Каплунов, Гоша Куценко, Денис Шведов, Филипп Янковский-Описание: Юная актриса — очаровательная и неуклюжая непосредственность, мечтающая стать настоящей звездой. Роскошная светская львица, жизнь которой в одно мгновение повисла на волоске. Её пятнадцатилетний приёмный сын, уставший от денег и притворства. Такие разные люди, такие тесно переплетенные судьбы…
Изысканный юмор, нежная романтическая линия и драматичные повороты сюжета приведут нас к трогательной развязке, где каждый герой осознает, что для него значит истинное счастье.-
Качество видео: WEB-DLRip
Контейнер: AVI
Видео кодек: XviD
Аудио кодек: AC3
Видео: 720x400, 16:9, 1358 Кбит/сек, 24,000 кадра/сек, 0,196 Бит/(Пиксели*Кадры)
Аудио: 128 Кбит/сек, 2 канала, 48,0 КГц
Cубтитры: отсутствуют
  • V Одесский международный кинофестиваль — спецприз жюри «За блестящую актерскую игру» (актриса Тина Далакишвили).
  • IV Международный кинофестиваль «Край света» на Сахалине — Гран-при по итогам зрительского голосования.
  • X Международный кинофестиваль «Евразия» в Алматы — «Лучшая женская роль» (актриса Тина Далакишвили).
  • XII Международный кинофестиваль «Меридианы Тихого» во Владивостоке — приз зрительских симпатий «Звезда» за лучший российский фильм.-
  • Кинотавр, 2014 год
    • Победитель (2):
      • Приз за режиссуру (Анна Меликян)
      • Лучшая женская роль (Северия Янушаускайте)
    • Номинации (1):
      • Главный приз
  • Права на прокат «Звезды» проданы на территории Швейцарии и Люксембурга.
  • Северия Янушаускайте для «Звезды» выучила русский язык.
  • Кастинг на главные роли проходил полтора года.
  • Съемки фильма длились два с половиной месяца.
  • Для Павла Табакова роль в «Звезде» стала дебютной в кино.
Совсем недавно я смотрела один хороший фильм о странном треугольнике, «Как меня зовут», а теперь вот попала на другой. Тоже, между прочим, обласканный критикой и удостоенный разных наград. И вполне заслуженно.
«Звезда» рассказывает о неприступной даме, ее пасынке-подростке со всеми вытекающими последствиями и еще более странной девочке, мечтающей стать звездой. Снята эта история в жанре современной сказки — в жизни так, разумеется, не бывает, но это нисколько не уменьшает очарование фильма.
Это, я бы сказала, еще и очень интенсивное кино — оно прямо-таки бурлит эмоциями, образами и поворотами, и наблюдать за этим крайне увлекательно. Все на грани фола, еще чуть-чуть вправо или влево — и кино смотрелось бы совершенно по-другому.
Среди чисто кинематографических достоинств я бы выделила ударную работу актеров, хотя в последнее время плохую игру в большом кино я вообще вижу редко. Тут скорее речь идет о точном попадании в образ, кастинг действительно выдающийся. Хороша и операторская работа, и неповторимый режиссерский почерк, благодаря которому сценарий играет ни на что не похожими красками. А ведь в плохих руках он, со всеми своими сказочными перипетиями, мог бы превратиться в плохое «мыло».
Уверена, у «Звезды» найдется немало поклонников, потому что такие фильмы выходят не очень часто. При всей сказочности, это еще и достаточно достоверное отображение нашей жизни; при всей внешней легкомысленности — не только упражнение в остроумных диалогах и сценках, но еще и глубокая драма.
Впрочем, если вам нравятся строго определенные жанры, нравится знать, что именно вы получите, отправляясь в кино, — «Звезда» не для вас.
Код:
Общее
Полное имя                               : D:\movies\pirat.ca\ZVeZda.2014.O.WEBRip.1400Mb.avi
Формат                                   : AVI
Формат/Информация                        : Audio Video Interleave
Размер файла                             : 1,37 Гбайт
Продолжительность                        : 2 ч. 10 м.
Общий поток                              : 1496 Кбит/сек
Программа кодирования                    : VirtualDubMod 1.5.10.2 (build 2540/release)
Библиотека кодирования                   : VirtualDubMod build 2540/release
Видео
Идентификатор                            : 0
Формат                                   : MPEG-4 Visual
Профиль формата                          : Advanced [email protected]
Параметр BVOP формата                    : 2
Параметр QPel формата                    : Нет
Параметр GMC формата                     : Без точки перехода
Параметр матрицы формата                 : Default (MPEG)
Идентификатор кодека                     : XVID
Идентификатор кодека/Подсказка           : XviD
Продолжительность                        : 2 ч. 10 м.
Битрейт                                  : 1358 Кбит/сек
Ширина                                   : 720 пикселей
Высота                                   : 400 пикселей
Соотношение сторон                       : 16:9
Частота кадров                           : 24,000 кадра/сек
Цветовое пространство                    : YUV
Субдискретизация насыщенности            : 4:2:0
Битовая глубина                          : 8 бит
Тип развёртки                            : Прогрессивная
Метод сжатия                             : С потерями
Бит/(Пиксели*Кадры)                      : 0.196
Размер потока                            : 1,24 Гбайт (91%)
Библиотека кодирования                   : XviD 1.2.1 (UTC 2008-12-04)
Аудио
Идентификатор                            : 1
Формат                                   : AC-3
Формат/Информация                        : Audio Coding 3
Расширение режима                        : CM (complete main)
Параметр Endianness формата              : Big
Идентификатор кодека                     : 2000
Продолжительность                        : 2 ч. 10 м.
Вид битрейта                             : Постоянный
Битрейт                                  : 128 Кбит/сек
Каналы                                   : 2 канала
Расположение каналов                     : Front: L R
Частота                                  : 48,0 КГц
Битовая глубина                          : 16 бит
Метод сжатия                             : С потерями
Размер потока                            : 120 Мбайт (9%)
Выравнивание                             : Разделение по промежуткам
Продолжительность промежутка             : 42  мс. (1,00 видеокадр)
Время предзагрузки промежутка            : 500  мс.
Download / Скачать

Хотите скачать бесплатно? Зарегистрируйтесь на сайте (ссылка на регистрацию). Pirat.ca - самый быстрый торрент трекер в рунете!

Как скачивать  ·   Что такое торрент  ·   Рейтинг и ограничения

Пост 21-Янв-2015 15:58 (спустя 36 минут)

Топик был перенесен из форума Наше кино (Трюм) в форум Новинки (HD|DVD|BD| TV|SAT|PDTV| - Rips)
aleksey99
 

dambrina

Флибустьер

Пост 21-Янв-2015 19:25 (спустя 4 часа)

[Q] 

Спасибо!!!
[Профиль]  [ЛС] 

(Anzo)

Лоцман

Пост 21-Янв-2015 20:07 (спустя 41 минута)

[Q] 

заценим!!!! Супер! Лови бочку
[Профиль]  [ЛС] 

Hausser

Гроза морей

Пост 21-Янв-2015 20:47 (спустя 39 минут)

[Q] 

Опять шведская львица?))) Очередной говновысер?
[Профиль]  [ЛС] 

hirokoanzai

Лоцман

Пост 21-Янв-2015 23:31 (спустя 2 часа 43 минуты)

[Q] 

Пля армянское уебище!
[Профиль]  [ЛС] 
Показать сообщения:    
Ответить на тему

Текущее время: Сегодня 06:14

Часовой пояс: GMT + 4



Вы не можете начинать темы
Вы не можете отвечать на сообщения
Вы не можете редактировать свои сообщения
Вы не можете удалять свои сообщения
Вы не можете голосовать в опросах
Вы не можете прикреплять файлы к сообщениям
Вы не можете скачивать файлы

▼ Вниз