ML
     
  Уважаемый Гость!
Вы можете поддержать проект и зарегистрироваться у наших партнеров - онлайн-стратегия MyLands. При регистрации в игре Вы получите код, который сможете активировать после регистрации на pirat.ca и получить 1000 дублонов.

Ваш код:
dbd0d701284cde74a1f34d06ce20b7bc75a73e75
 
     

Василиса (Антон Сиверс) [2014 г., история, мелодрама, BDRip-AVC] (Лицензия)

Ответить на тему
 
Автор
Сообщение

Пост 31-Янв-2015 21:51

[Q] 

LPPI

-Василиса-«Моя любовь. Моя война. Моё отечество»- Производство: Россия, Всемирные Русские Студии
Жанр: история, мелодрама
Год выпуска: 2014 г.
Продолжительность: 01:39:50
Российская премьера: 4 декабря 2014, «Парадиз»-Режиссер: Антон Сиверс
В ролях: Светлана Ходченкова, Дмитрий Соломыкин, Жером Кузан, Кристина Кузьмина, Игорь Черневич, Андрей Ильин, Ирина Розанова, Илья Носков, Андрей Носков, Жоанн Морио, Оливье Сиу, Сесиль Мари Жендр, Ксения Разина, Коля Спиридонов, Фёдор Никитин, Валерий Немешаев, Юрий Кузнецов, Алексей Барабаш, Владимир Матвеев, Юрий Батурин-Описание: Он дворянин, а она — крепостная крестьянка… Им не суждено быть вместе. Возможно, так и закончилась бы эта любовная история, если бы не ВОЙНА. Наполеон вторгся в пределы Российской Империи, и этот день изменил привычный уклад и сословные предрассудки. Мир больше никогда не станет прежним. Война пишет новую историю любви.- -Качество видео: BDRip-AVC (Лицензия)
Контейнер: MKV
Видео кодек: H.264
Аудио кодек: AC3
Видео: 1024x576 (16:9), 2 830 Kbps, 24 fps, 0.200 bit/pix
Аудио: 448 Kbps, 6 ch, 48.0 KHz
Cубтитры: отсутствуют
General
Unique ID : 222994762641012446807545793576571928727 (0xA7C33AA51085AFE885760707373E8097)
Complete name : C:\Users\Ivan\Desktop\Василиса.2014.BDRip-AVC.mkv
Format : Matroska
Format version : Version 2
File size : 2.28 GiB
Duration : 1h 39mn
Overall bit rate : 3 272 Kbps
Movie name : Rip by LPPI
Encoded date : UTC 2015-01-31 17:31:28
Writing application : mkvmerge v5.5.0 ('Healer') built on Apr 6 2012 21:43:24
Writing library : libebml v1.2.3 + libmatroska v1.3.0
DURATION : 01:39:50.496000000
NUMBER_OF_FRAMES : 187203
NUMBER_OF_BYTES : 335467776
_STATISTICS_WRITING_APP : mkvmerge v7.5.0 ('Glass Culture') 64bit built on Jan 4 2015 16:48:44
_STATISTICS_WRITING_DATE_UT : 2015-01-31 17:29:19
_STATISTICS_TAGS : BPS DURATION NUMBER_OF_FRAMES NUMBER_OF_BYTES
Video
ID : 1
Format : AVC
Format/Info : Advanced Video Codec
Format profile : [email protected]
Format settings, CABAC : Yes
Format settings, ReFrames : 7 frames
Codec ID : V_MPEG4/ISO/AVC
Duration : 1h 39mn
Bit rate : 2 830 Kbps
Width : 1 024 pixels
Height : 576 pixels
Display aspect ratio : 16:9
Frame rate mode : Constant
Frame rate : 24.000 fps
Color space : YUV
Chroma subsampling : 4:2:0
Bit depth : 8 bits
Scan type : Progressive
Bits/(Pixel*Frame) : 0.200
Stream size : 1.92 GiB (84%)
Title : Василиса (2014)
Writing library : x264 core 130 r2273 b3065e6
Encoding settings : cabac=1 / ref=7 / deblock=1:-3:-3 / analyse=0x3:0x133 / me=umh / subme=11 / psy=1 / psy_rd=1.00:0.15 / mixed_ref=0 / me_range=48 / chroma_me=1 / trellis=2 / 8x8dct=1 / cqm=0 / deadzone=21,11 / fast_pskip=0 / chroma_qp_offset=-3 / threads=12 / lookahead_threads=2 / sliced_threads=0 / nr=0 / decimate=0 / interlaced=0 / bluray_compat=0 / constrained_intra=0 / bframes=7 / b_pyramid=2 / b_adapt=2 / b_bias=0 / direct=3 / weightb=1 / open_gop=0 / weightp=2 / keyint=250 / keyint_min=23 / scenecut=40 / intra_refresh=0 / rc=2pass / mbtree=0 / bitrate=2830 / ratetol=1.0 / qcomp=0.60 / qpmin=0 / qpmax=69 / qpstep=4 / cplxblur=20.0 / qblur=0.5 / ip_ratio=1.40 / pb_ratio=1.30 / aq=1:1.00
Language : Russian
Default : Yes
Forced : No
DURATION : 01:39:50.505000000
NUMBER_OF_FRAMES : 143772
NUMBER_OF_BYTES : 2113562714
_STATISTICS_WRITING_APP : mkvmerge v7.5.0 ('Glass Culture') 64bit built on Jan 4 2015 16:48:44
_STATISTICS_WRITING_DATE_UT : 2015-01-31 17:29:19
_STATISTICS_TAGS : BPS DURATION NUMBER_OF_FRAMES NUMBER_OF_BYTES
Audio
ID : 2
Format : AC-3
Format/Info : Audio Coding 3
Mode extension : CM (complete main)
Format settings, Endianness : Big
Codec ID : A_AC3
Duration : 1h 39mn
Bit rate mode : Constant
Bit rate : 448 Kbps
Channel(s) : 6 channels
Channel positions : Front: L C R, Side: L R, LFE
Sampling rate : 48.0 KHz
Bit depth : 16 bits
Compression mode : Lossy
Stream size : 320 MiB (14%)
Title : Лицензия
Language : Russian
Default : Yes
Forced : No
Menu
00:00:00.000 : :Chapter 1
00:07:00.000 : :Chapter 2
00:14:00.000 : :Chapter 3
00:21:00.000 : :Chapter 4
00:28:00.000 : :Chapter 5
00:35:00.000 : :Chapter 6
00:42:00.000 : :Chapter 7
00:49:00.000 : :Chapter 8
00:56:00.000 : :Chapter 9
01:03:00.000 : :Chapter 10
01:10:00.000 : :Chapter 11
01:17:00.000 : :Chapter 12
01:24:00.000 : :Chapter 13
01:31:00.000 : :Chapter 14
01:38:00.000 : :Chapter 15
x264 [info]: frame I:1139  Avg QP:16.94  size: 88829
x264 [info]: frame P:40790 Avg QP:19.92 size: 27192
x264 [info]: frame B:101843 Avg QP:21.18 size: 8869
Download / Скачать

Хотите скачать бесплатно? Зарегистрируйтесь на сайте (ссылка на регистрацию). Pirat.ca - самый быстрый торрент трекер в рунете!

Как скачивать  ·   Что такое торрент  ·   Рейтинг и ограничения

hevard

Гроза морей

2109

Пост 31-Янв-2015 22:12 (спустя 20 минут)

[Q] 

Хаааааа! Отзывы радуют!!!
Фильм «Василиса» Антона Сиверса про Василису Кожину — прекрасный пример того, как не надо снимать историческое кино. Такие ленты непременно должны крутить во ВГИКе будущим мастерам художественных фильмов.
Начало… крепостная, дворянин… в голове начинает бытовать мнение того, что зря я грешил и всячески игнорировал российский кинематограф, но неожиданно начинаю замечать маленькие такие косячки, ладно небольшие следы от пролетавшего самолета. Самого самолета в кадре нет, хотя впрочем, я смотрел фильм не целиком. А вот след, добротный такой след, годный для распознавания даже тем, кто в авиации и т. п. не бум бум. Черт с ним с загаром на некоторых персонажах, не знаю как именно можно оправдать у крестьян зимой загар, но да черт с ним. Ладно идеальные зубы у крестьянских мужей, черт с ним что кое где видны следы от протекторов. Это еще можно пережить… но, НО МАНИКЮР У ГЛАВНОЙ ГЕРОИНИ,- нет, нет и еще раз нет,- это точно невозможно пережить. Она значит трудится в огороде, одежду моет, кушать готовит, потом еще немного французов рубит и при этом на протяжении всего фильма у нее просто потрясающий маникюр. Но то ли это у крепостных русских женщин был фетиш такой, то ли кто-то из них по-тихому оторвался от реальность века так на два, просек про такое понятие как маникюр для своего крестьянского подворья — но маникюр у главной героине, что надо. Не знаю для кого как, но для меня маникюр у крестьянки гоняющей пол фильма французов — это прям нечто.
В фильме навалено такое количество несуразностей, с которым может поспорить только разве что Голливуд. Вспомнить хотя бы нелепую сцену с мостом, сваи которого никак не могли разрубить, хотя достаточно было перерубить верёвки или взорвать бомбу, которая потом взорвалась непонятно где, убив нескольких конников, но даже не оставив следа на заснеженной дорожке. Или сборище типа русских крепостных с одинаковыми париками и ярко-синими линзами, и как только бабы в селе их различали?
А худосочная Ходченкова — это просто классическая крепостная, сразу видно. Конечно, надо было взять медийное лицо, узнаваемое каждой собакой, иначе народ не пойдёт в кино. Но высоченная девица как-то не вызывает жалости, возвышаясь над деревенскими мужиками, словно циркач на ходулях.
А благородство французов в жалких попытках завоевать Россию, но не способных убить или изнасиловать одну обыкновенную девку — это просто песня. Особенно вышибает слезу попытка объясниться после разгрома деревни, война войной, но воровать и грабить надо благородно. Простите, мы ведь не хотели вас обижать!
Лови бочку

_________________
-Я старый пират и не знаю слов лицензионного соглашения...
[Профиль]  [ЛС] 

EDVAR

Легенда

Пост 31-Янв-2015 22:21 (спустя 9 минут)

[Q] 

hevard спасибо,интересно. Автору респект!!!

_________________
"Как других судить-вы судьи.Как себя-вы адвокаты"
[Профиль]  [ЛС] 

BraionServ1

Гроза морей

Пост 31-Янв-2015 23:06 (спустя 45 минут)

[Q] 

Мля столько раз эту подделку выкидывают Интересна здесь разве что целевая аудитория, а не творение
[Профиль]  [ЛС] 

dp

Корсар

Пост 01-Фев-2015 08:34 (спустя 9 часов)

[Q] 

Ходченкову я смотрю во все дырки суют, куда не глянь везде она. фильм на троечку, уже и про войну наши снимать разучились

_________________
Мог стать отличным пианистом, а стал поскудным программистом
[Профиль]  [ЛС] 

ALEHAN

Легенда

Пост 03-Мар-2015 22:03 (спустя 1 месяц 2 дня)

[Q] 

ДА! Я сделал это! Досмотрел до конца! Пусть глаз подергивает, и лицо перекосило, но выдержал!
Кто смел, кто готов пройти испытание на стойкость, выдержать тонну несуразицы и полтора часа мути, качайте не пожалеете!
[Профиль]  [ЛС] 

ТАЛИ

Корсар

Пост 20-Апр-2015 23:16 (спустя 1 месяц 17 дней)

[Q] 

Вообще-то замах был явно на сериал. Серий так из 10-ти неплохой получился бы. А так - какой-то огрызок невнятный. Кто, откуда, почему, куда делись - непонятно...
[Профиль]  [ЛС] 
Показать сообщения:    
Ответить на тему

Текущее время: Сегодня 18:35

Часовой пояс: GMT + 4



Вы не можете начинать темы
Вы не можете отвечать на сообщения
Вы не можете редактировать свои сообщения
Вы не можете удалять свои сообщения
Вы не можете голосовать в опросах
Вы не можете прикреплять файлы к сообщениям
Вы не можете скачивать файлы

▼ Вниз