ML
     
  Уважаемый Гость!
Вы можете поддержать проект и зарегистрироваться у наших партнеров - онлайн-стратегия MyLands. При регистрации в игре Вы получите код, который сможете активировать после регистрации на pirat.ca и получить 1000 дублонов.

Ваш код:
74c28610d77aaac24ba694c4128f3b9b46b04220
 
     

Русские братья (Николай Фомин) [1991 г., Исторический, военный, драма, TVRip]

Ответить на тему
 
Автор
Сообщение

Пост 02-Фев-2015 23:01

[Q] 

Элез

Флибустьер

-Русские братья-- Производство: СССР
Режиссер: Николай Фомин
Жанр: Исторический, военный, драма
Год выпуска: 1991 г.
Продолжительность: 01:13:48
Дата выхода DVD: 16 октября 2008, «Мьюзик-Трейд»
В ролях: Михаил Глузский, Нина Русланова, Николай Фомин, Владимир Ивашов, Александр Панкратов-Черный, Виктор Павлов, Александр Бобровский, Алексей Симановский, Владимир Торсуев, Юрий Торсуев, Олег Макаров, Юрий Стосков, Людмила Полякова, Наталья Жаркова, Оксана Лылина, Наталья Жвачкина-Описание: Большая группа уголовников совершает побег из мест заключения. Вертолет с группой захвата терпит крушение и теперь преследователи оказались в роли преследуемых. Трагично, что среди уголовников оказался родной брат одного из оперативников.
Идет борьба не на жизнь, а на смерть, в прямом смысле брат идет на брата. Старый лесник, помогающий оперативникам, вспоминает дни своей молодости во времена гражданской войны, когда тоже «брат шел на брата» и с болью задает главный вoпрос: почему русские убивают русских?-Сэмпл-КиноПоиск
Качество видео: TVRip
Контейнер: AVI
Видео кодек: DivX
Аудио кодек: MPEG -Audio
Видео: MPEG-4 Visual at 1920 Кбит/сек : 688 x 512 at 25.000 fps Бит/Пиксели*Кадры : 0.218
Аудио: MPEG Audio at 192 Кбит/сек : 2 канала, 48,0 КГц
Cубтитры: отсутствуют
Общее
Полное имя : D:\µTorrent\razda4a\Russkie.bratja.(1991).TVRip.avi
Формат : AVI
Формат/Информация : Audio Video Interleave
Размер файла : 1,09 Гбайт
Продолжительность : 1 ч. 13 м.
Общий поток : 2122 Кбит/сек
Режиссёр : Rip by Xamasas
Программа кодирования : VirtualDubMod 1.5.10.2 (build 2540/release)
Видео
Идентификатор : 0
Формат : MPEG-4 Visual
Параметр BVOP формата : Нет
Параметр QPel формата : Нет
Параметр GMC формата : Без точки перехода
Параметр матрицы формата : Default (H.263)
Идентификатор кодека : DX50
Идентификатор кодека/Подсказка : DivX 5
Продолжительность : 1 ч. 13 м.
Битрейт : 1920 Кбит/сек
Ширина : 688 пикселей
Высота : 512 пикселей
Соотношение сторон : 4:3
Частота кадров : 25,000 кадров/сек
Цветовое пространство : YUV
Субдискретизация насыщенности : 4:2:0
Битовая глубина : 8 бит
Тип развёртки : Прогрессивная
Метод сжатия : С потерями
Бит/(Пиксели*Кадры) : 0.218
Размер потока : 1013 Мбайт (90%)
Библиотека кодирования : DivX 5.2.1 (WaffleDay) (UTC 2004-09-08)
Аудио
Идентификатор : 1
Формат : MPEG Audio
Версия формата : Version 1
Профиль формата : Layer 2
Идентификатор кодека : 50
Продолжительность : 1 ч. 13 м.
Вид битрейта : Постоянный
Битрейт : 192 Кбит/сек
Каналы : 2 канала
Частота : 48,0 КГц
Метод сжатия : С потерями
Размер потока : 101 Мбайт (9%)
Выравнивание : Соединение по промежуткам
Продолжительность промежутка : 40 мс. (1,00 видеокадр)
Время предзагрузки промежутка : 504 мс.
Download / Скачать

Хотите скачать бесплатно? Зарегистрируйтесь на сайте (ссылка на регистрацию). Pirat.ca - самый быстрый торрент трекер в рунете!

Как скачивать  ·   Что такое торрент  ·   Рейтинг и ограничения

Элез ®

Флибустьер

15330

Пост 03-Фев-2015 17:15 (спустя 18 часов)

[Q] 

На раздачу вернулся

_________________

[Профиль]  [ЛС] 

Пост 03-Фев-2015 18:02 (спустя 46 минут)

Топик был перенесен из форума Наше кино (Трюм) в форум Российские фильмы
aleksey99
 
Показать сообщения:    
Ответить на тему

Текущее время: Сегодня 09:59

Часовой пояс: GMT + 4



Вы не можете начинать темы
Вы не можете отвечать на сообщения
Вы не можете редактировать свои сообщения
Вы не можете удалять свои сообщения
Вы не можете голосовать в опросах
Вы не можете прикреплять файлы к сообщениям
Вы не можете скачивать файлы

▼ Вниз