ML
     
  Уважаемый Гость!
Вы можете поддержать проект и зарегистрироваться у наших партнеров - онлайн-стратегия MyLands. При регистрации в игре Вы получите код, который сможете активировать после регистрации на pirat.ca и получить 1000 дублонов.

Ваш код:
21acd5966619d49ad0b90c3305467b4646cc11a8
 
     

Ёлки лохматые (Максим Свешников) [2014 г., Семейный, Комедия, HDRip] (Лицензия)

Ответить на тему
 
Автор
Сообщение

Пост 04-Фев-2015 10:43

[Q] 

naryshev

Флибустьер

-Ёлки лохматые-- Производство: Россия, Bazelevs Distribution
Режиссер: Максим Свешников
Жанр: Семейный, Комедия
Год выпуска: 2014 г.
Продолжительность: 01:25:48
Российская премьера: 29 января 2015, «Двадцатый Век Фокс СНГ», «Bazelevs Distribution»
Дата выхода DVD: 19 марта 2015, «CP Дистрибуция»
Дата выхода Blu-Ray: 19 марта 2015, «CP Дистрибуция»-В ролях: Андрей Мерзликин, Ян Цапник, Лера Стреляева, Галина Коньшина, Игорь Власов, Сергей Троев, Айса Энимал Арт, Пётр Фёдоров, Анна Чиповская, Андрей Федорцов-Описание: Хозяйка Пирата и Йоко — самарская девочка Настя — улетает с бабушкой в Питер, оставляя питомцев в отеле для собак. Расценив это как предательство, животные сбегают домой, где можно наконец почувствовать себя человеком — есть сколько угодно, играть без устали и спать на хозяйской кровати. Но райский отдых влюбленных прерывают два незадачливых воришки, которых ждет нечеловеческий прием…-Сэмпл КиноПоиск
Качество видео: HDRip
Контейнер: AVI
Видео кодек: XviD
Аудио кодек: AC3
Видео: 720x304 (2.37:1), 24 fps, XviD build 50 ~1822 kbps avg, 0.35 bit/pixel
Аудио: 48 kHz, AC3 Dolby Digital, 3/2 (L,C,R,l,r) + LFE ch, ~448 kbps
Cубтитры: отсутствуют
Общее
Полное имя : E:\Фильмы\Ёлки.лохматые.2014.HDRip.avi
Формат : AVI
Формат/Информация : Audio Video Interleave
Размер файла : 1,37 Гбайт
Продолжительность : 1 ч. 25 м.
Общий поток : 2280 Кбит/сек
Программа кодирования : VirtualDubMod 1.5.10.2 (build 2540/release)
Видео
Идентификатор : 0
Формат : MPEG-4 Visual
Профиль формата : Advanced [email protected]
Параметр BVOP формата : 2
Параметр QPel формата : Нет
Параметр GMC формата : Без точки перехода
Параметр матрицы формата : Default (MPEG)
Идентификатор кодека : XVID
Идентификатор кодека/Подсказка : XviD
Продолжительность : 1 ч. 25 м.
Битрейт : 1823 Кбит/сек
Ширина : 720 пикселей
Высота : 304 пикселя
Соотношение сторон : 2,35:1
Частота кадров : 24,000 кадра/сек
Цветовое пространство : YUV
Субдискретизация насыщенности : 4:2:0
Битовая глубина : 8 бит
Тип развёртки : Прогрессивная
Метод сжатия : С потерями
Бит/(Пиксели*Кадры) : 0.347
Размер потока : 1,09 Гбайт (80%)
Библиотека кодирования : XviD 1.2.1 (UTC 2008-12-04)
Аудио
Идентификатор : 1
Формат : AC-3
Формат/Информация : Audio Coding 3
Расширение режима : CM (complete main)
Параметр Endianness формата : Big
Идентификатор кодека : 2000
Продолжительность : 1 ч. 25 м.
Вид битрейта : Постоянный
Битрейт : 448 Кбит/сек
Каналы : 6 каналов
Расположение каналов : Front: L C R, Side: L R, LFE
Частота : 48,0 КГц
Битовая глубина : 16 бит
Метод сжатия : С потерями
Размер потока : 275 Мбайт (20%)
Выравнивание : Разделение по промежуткам
Продолжительность промежутка : 42 мс. (1,00 видеокадр)
Время предзагрузки промежутка : 500 мс.
Скриншоты
Download / Скачать

Хотите скачать бесплатно? Зарегистрируйтесь на сайте (ссылка на регистрацию). Pirat.ca - самый быстрый торрент трекер в рунете!

Как скачивать  ·   Что такое торрент  ·   Рейтинг и ограничения



Последний раз редактировалось: naryshev (2015-02-04 10:54), всего редактировалось 2 раз(а)

Пост 04-Фев-2015 10:57 (спустя 14 минут)

Топик был перенесен из форума Наше кино (Трюм) в форум Новинки (HD|DVD|BD| TV|SAT|PDTV| - Rips)
LPPI
 

BORT-747

Флибустьер

352

Пост 04-Фев-2015 11:04 (спустя 21 минута)

[Q] 

Я так понял это продолжение о "бумеранге добра" с елки 3 ?!

_________________
[Профиль]  [ЛС] 

СерКат

Корсар

Пост 04-Фев-2015 11:49 (спустя 44 минуты)

[Q] 

спасибо,посмотрим семейно
[Профиль]  [ЛС] 

HEDGEHOG932

Корсар

Пост 04-Фев-2015 13:18 (спустя 1 час 29 минут)

[Q] 

спасибо!!!!!!!!!

_________________

[Профиль]  [ЛС] 

diman3737

Пост 04-Фев-2015 14:32 (спустя 1 час 13 минут)

[Q] 

Быстро однако! Спасибо!!!
[Профиль]  [ЛС] 

Jek@

Легенда

Пост 04-Фев-2015 14:59 (спустя 26 минут)

[Q] 

Спасибо!!! .
[Профиль]  [ЛС] 

dogovor

Морской Волк

Пост 04-Фев-2015 15:41 (спустя 42 минуты)

[Q] 

Автору респект!!! Одобрямс!
[Профиль]  [ЛС] 

svat74

Корсар

Пост 04-Фев-2015 17:12 (спустя 1 час 30 минут)

[Q] 

спасибо вечером посмотрим Автору респект!!!
[Профиль]  [ЛС] 

uzi

Морской Волк

Пост 04-Фев-2015 18:11 (спустя 59 минут)

[Q] 

отдохнуть вечерком Автору респект!!!
[Профиль]  [ЛС] 

Sakoru

Корсар

Пост 04-Фев-2015 18:54 (спустя 42 минуты)

[Q] 

Быстро) спасибо.

_________________
[Профиль]  [ЛС] 

sektorram

Морской Волк

Пост 04-Фев-2015 18:59 (спустя 5 минут)

[Q] 

как фильмец ? кто смотрел отпишитесь пожалуйста!
[Профиль]  [ЛС] 

Frost_34rus

Морской Волк

Пост 04-Фев-2015 20:49 (спустя 1 час 49 минут)

[Q] 

Спасибо..Племянница в кинотеатре смотрела - говорит отличный семейный фильм..
[Профиль]  [ЛС] 

Alingva

Гроза морей

18

Пост 04-Фев-2015 22:09 (спустя 1 час 19 минут)

[Q] 

Глянем-с! Автору респект!!!

_________________
Если Вам кажется что у Вас нимб над головой, то не обращайте на него внимание - это просто мания величия!
[Профиль]  [ЛС] 

kinstintin

Гроза морей

Пост 04-Фев-2015 22:23 (спустя 14 минут)

[Q] 

Спасибо!
Посмотрим!
[Профиль]  [ЛС] 

Танюха10988

Гроза морей

Пост 05-Фев-2015 23:35 (спустя 1 день 1 час)

[Q] 

Спасибо Автору респект!!!
[Профиль]  [ЛС] 

Дмитрий2011d

Шкипер

Пост 09-Фев-2015 11:04 (спустя 3 дня)

[Q] 

Спасибо!!!
[Профиль]  [ЛС] 

U-858

Флибустьер

Пост 16-Фев-2015 22:48 (спустя 7 дней)

[Q] 

заценим Лови бочку Спасибо!!!
[Профиль]  [ЛС] 

Alesenka1997

Юнга

Пост 20-Фев-2015 18:22 (спустя 3 дня)

[Q] 

Спасибо! Посмотрим с семьёй вечерком
[Профиль]  [ЛС] 

Ambeg

Корсар

Пост 20-Фев-2015 19:29 (спустя 1 час 7 минут)

[Q] 

Спасибо спасибо как фильм то???
[Профиль]  [ЛС] 

Vagabond_AJIEX

Штурман

Пост 21-Фев-2015 01:34 (спустя 6 часов)

[Q] 

Фильм в восторг не привёл. Напомнил "Один дома" USA. Для одного просмотра можно качнуть. Качество картинки и звука хорошее.
[Профиль]  [ЛС] 

Korcha40

Морской Волк

Пост 21-Фев-2015 07:35 (спустя 6 часов)

[Q] 

фильм семейный ! смотреть можно ! местами и посмеяться ! но два лба не могут справиться с мелкими собачками это песня ! Спасибо!!!
[Профиль]  [ЛС] 

SHERHAN

683

Пост 21-Фев-2015 07:52 (спустя 17 минут)

[Q] 

Фильм для младшего школьного возраста..
один раз посмотреть и забыть...

_________________
Рыжий хищник, полосатый,
В меру наглый и усатый,
Днём и ночью он не спит,
Зорко в монитор глядит!
[Профиль]  [ЛС] 

SashaMkaban

Корсар

Пост 21-Фев-2015 11:52 (спустя 4 часа)

[Q] 

Если бы не было столько рекламы перед выходом фильма, может быть пересилил бы себя и посмотрел. А так не буду.
[Профиль]  [ЛС] 

BurBon

Лоцман

Пост 25-Фев-2015 23:01 (спустя 4 дня)

[Q] 

Автору спасибо))) Спасибо!!!
[Профиль]  [ЛС] 

youfate

Корсар

Пост 27-Фев-2015 17:05 (спустя 1 день 18 часов)

[Q] 

Автору респект!!! Пиратка рулез!!!
[Профиль]  [ЛС] 

Пост 07-Мар-2015 15:36 (спустя 7 дней)

Топик был перенесен из форума Новинки (HD|DVD|BD| TV|SAT|PDTV| - Rips) в форум Российские фильмы
kugesan
 
Показать сообщения:    
Ответить на тему

Текущее время: Сегодня 23:20

Часовой пояс: GMT + 4



Вы не можете начинать темы
Вы не можете отвечать на сообщения
Вы не можете редактировать свои сообщения
Вы не можете удалять свои сообщения
Вы не можете голосовать в опросах
Вы не можете прикреплять файлы к сообщениям
Вы не можете скачивать файлы

▼ Вниз