ML
     
  Уважаемый Гость!
Вы можете поддержать проект и зарегистрироваться у наших партнеров - онлайн-стратегия MyLands. При регистрации в игре Вы получите код, который сможете активировать после регистрации на pirat.ca и получить 1000 дублонов.

Ваш код:
74c28610d77aaac24ba694c4128f3b9b46b04220
 
     

Ёлки лохматые (Максим Свешников) [2014 г., семейный, комедия, HDRip] [Лицензия]

Ответить на тему
 
Автор
Сообщение

Пост 04-Фев-2015 15:04

[Q] 

ara1205

-Ёлки лохматые-- Производство: Россия
Год выпуска: 2014 г.
Жанр: семейный, комедия
Продолжительность: 01:25:48-Режиссер: Максим Свешников-В ролях: Андрей Мерзликин, Ян Цапник, Лера Стреляева, Галина Коньшина, Игорь Власов, Сергей Троев, Айса Энимал Арт, Пётр Фёдоров, Анна Чиповская, Андрей Федорцов-Описание: Хозяйка Пирата и Йоко — самарская девочка Настя — улетает с бабушкой в Питер, оставляя питомцев в отеле для собак. Расценив это как предательство, животные сбегают домой, где можно наконец почувствовать себя человеком — есть сколько угодно, играть без устали и спать на хозяйской кровати. Но райский отдых влюбленных прерывают два незадачливых воришки, которых ждет нечеловеческий прием…- -Качество видео: HDRip
Контейнер: AVI
Видео кодек: XviD
Аудио кодек: MP3
Видео: 688x288, 24.000 fps, 1075 kbps avg, 0.226 bit/pixel
Аудио: 48,0 kHz, MPEG Layer 3, 2 ch, ~128.00 kbps avg
Cубтитры: отсутствуют-
Общее
Полное имя : C:\Users\Roman\Pictures\Ёлки лохматые\Elki.Lohmatye.2014.HDRip.745Mb.[pirat.ca].avi
Формат : AVI
Формат/Информация : Audio Video Interleave
Размер файла : 744 Мбайт
Продолжительность : 1 ч. 25 м.
Общий поток : 1212 Кбит/сек
Название фильма : Elki.Lohmatye.2014.HDRip.745Mb.[pirat.ca]
Программа кодирования : VirtualDubMod 1.5.10.3 | www.virtualdub-fr.org || (build 2550/release)
Примечание : http://pirat.ca
Видео
Идентификатор : 0
Формат : MPEG-4 Visual
Профиль формата : Advanced [email protected]
Параметр BVOP формата : 1
Параметр QPel формата : Нет
Параметр GMC формата : Без точки перехода
Параметр матрицы формата : Default (MPEG)
Идентификатор кодека : XVID
Идентификатор кодека/Подсказка : XviD
Продолжительность : 1 ч. 25 м.
Битрейт : 1075 Кбит/сек
Ширина : 688 пикселей
Высота : 288 пикселей
Соотношение сторон : 2,40:1
Частота кадров : 24,000 кадра/сек
Цветовое пространство : YUV
Субдискретизация насыщенности : 4:2:0
Битовая глубина : 8 бит
Тип развёртки : Прогрессивная
Метод сжатия : С потерями
Бит/(Пиксели*Кадры) : 0.226
Размер потока : 659 Мбайт (89%)
Библиотека кодирования : XviD 1.2.0.dev47 (UTC 2006-11-01)
Аудио
Идентификатор : 1
Формат : MPEG Audio
Версия формата : Version 1
Профиль формата : Layer 3
Идентификатор кодека : 55
Идентификатор кодека/Подсказка : MP3
Продолжительность : 1 ч. 25 м.
Вид битрейта : Постоянный
Битрейт : 128 Кбит/сек
Каналы : 2 канала
Частота : 48,0 КГц
Метод сжатия : С потерями
Размер потока : 78,6 Мбайт (11%)
Выравнивание : Соединение по промежуткам
Продолжительность промежутка : 42 мс. (1,00 видеокадр)
Время предзагрузки промежутка : 504 мс.
Библиотека кодирования : LAMELAME_MAJOR_VERSI
-
-
-
Download / Скачать

Хотите скачать бесплатно? Зарегистрируйтесь на сайте (ссылка на регистрацию). Pirat.ca - самый быстрый торрент трекер в рунете!

Как скачивать  ·   Что такое торрент  ·   Рейтинг и ограничения

тэц

Шкипер

Пост 04-Фев-2015 16:08 (спустя 1 час 4 минуты)

[Q] 

спасибо за раздачу eb
[Профиль]  [ЛС] 

stas498

Корсар

Пост 04-Фев-2015 18:09 (спустя 2 часа)

[Q] 

спасибо забираю
[Профиль]  [ЛС] 

cyborg

Лоцман

Пост 04-Фев-2015 19:58 (спустя 1 час 49 минут)

[Q] 

Спасибо,заценим.
[Профиль]  [ЛС] 

Alex Yz

Гроза морей

Пост 04-Фев-2015 20:09 (спустя 11 минут)

[Q] 

Спасибо, развлечёмся!!!
[Профиль]  [ЛС] 

kinstintin

Гроза морей

Пост 04-Фев-2015 22:21 (спустя 2 часа 12 минут)

[Q] 

Спасибо, посмотрим...
[Профиль]  [ЛС] 

markuswolf

Шкипер

Пост 05-Фев-2015 12:58 (спустя 14 часов)

[Q] 

Спасибо!!! посмотрим.

_________________
Грустной жопой - радостно не пукнешь...
[Профиль]  [ЛС] 

zvezda_2s

Корсар

Пост 05-Фев-2015 16:24 (спустя 3 часа)

[Q] 

Нет отзывов. Никто не смотрел?
[Профиль]  [ЛС] 

Bos_Man

Штурман

Пост 05-Фев-2015 19:30 (спустя 3 часа)

[Q] 

Спасибо!!! Как раз на выходных посмотреть
[Профиль]  [ЛС] 

dambrina

Флибустьер

Пост 06-Фев-2015 17:03 (спустя 21 час)

[Q] 

надеемся на лучшее)
[Профиль]  [ЛС] 

xkondorx

Лоцман

Пост 06-Фев-2015 20:49 (спустя 3 часа)

[Q] 

Это не чего что HDRip длинной в 1 с лишним часа занимает всего 744мб? С качеством так как это заявлено?
[Профиль]  [ЛС] 

Agat

Корсар

Пост 07-Фев-2015 14:25 (спустя 17 часов)

[Q] 

Нууу, на любитель чисто!

_________________
Не для Нас, команда - Вольно, отдохнём, когда раздавят!!!
[Профиль]  [ЛС] 

dambrina

Флибустьер

Пост 22-Фев-2015 14:06 (спустя 14 дней)

[Q] 

по большей части для детей +)
[Профиль]  [ЛС] 

U-858

Флибустьер

Пост 23-Фев-2015 20:57 (спустя 1 день 6 часов)

[Q] 

Заценим Лови бочку Спасибо!!!
[Профиль]  [ЛС] 

Korcha40

Морской Волк

Пост 24-Фев-2015 19:36 (спустя 22 часа)

[Q] 

сопливо-сентиментальные моменты с собаками и вялая пародия двух идиотов из "Один дома 1 "! как то так ! детям возможно понравится ! взрослым - явно на любителя ! Спасибо!!! Автору респект!!!
[Профиль]  [ЛС] 

bolikgeko

Гроза морей

211

Пост 24-Фев-2015 22:30 (спустя 2 часа 54 минуты)

[Q] 

Спасибо раздающему! Лови бочку
[Профиль]  [ЛС] 

Пост 07-Мар-2015 15:36 (спустя 10 дней)

Топик был перенесен из форума Новинки (HD|DVD|BD| TV|SAT|PDTV| - Rips) в форум Российские фильмы
kugesan
 

ТАЛИ

Корсар

Пост 19-Апр-2015 22:22 (спустя 1 месяц 22 дня)

[Q] 

Собачий "Один дома". Этот факт вообще не напрягает. Качественное семейное кинцо. Милота песиков просто зашкаливает. Всем качать!!!
[Профиль]  [ЛС] 

Лилиана

Юнга

Пост 20-Апр-2015 18:33 (спустя 20 часов)

[Q] 

Спасибо!!! Мне понравилось с ребенком посмотрели с удовольствием!!!!
[Профиль]  [ЛС] 

FATBOY

Пост 22-Июн-2015 12:48 (спустя 2 месяца 1 день)

[Q] 

это те самые Ёлки с Ургантом и Светлаковым или я не прав?
[Профиль]  [ЛС] 

Scorpion7474

Флибустьер

Пост 23-Июн-2015 16:46 (спустя 1 день 3 часа)

[Q] 

Лови бочку Спасибо!!!
[Профиль]  [ЛС] 

congress

Морской Волк

75

Пост 05-Янв-2016 20:42 (спустя 6 месяцев 12 дней)

[Q] 

Мда... Первые две трети фильма достаточно веселые и позитивные, интересные трюки с собаками.
Оставшиеся минут 30 полнейшая чушь. Даже школьник в такую сказку не поверит. Это уже не говоря о том, что всё полностью переписали с "Один дома".
Вердикт: фильм для семей с маленькими детьми на один просмотр.
Автору Спасибо!!! за старания!)

_________________
Котлеты – самые лучшие пирожки. У них и внутри мясо, и вместо теста – тоже мясо.
[Профиль]  [ЛС] 

adf854

Лоцман

Пост 21-Фев-2016 18:11 (спустя 1 месяц 15 дней)

[Q] 

Бред полный для детей
[Профиль]  [ЛС] 
Показать сообщения:    
Ответить на тему

Текущее время: Сегодня 10:00

Часовой пояс: GMT + 4



Вы не можете начинать темы
Вы не можете отвечать на сообщения
Вы не можете редактировать свои сообщения
Вы не можете удалять свои сообщения
Вы не можете голосовать в опросах
Вы не можете прикреплять файлы к сообщениям
Вы не можете скачивать файлы

▼ Вниз