ML
     
  Уважаемый Гость!
Вы можете поддержать проект и зарегистрироваться у наших партнеров - онлайн-стратегия MyLands. При регистрации в игре Вы получите код, который сможете активировать после регистрации на pirat.ca и получить 1000 дублонов.

Ваш код:
bc31d8aef74c92e19ad67e34a8fa63c3b9b812fb
 
     

Мамы 3 (Георгий Малков, Эмиль Никогосян) [2014 г., комедия, семейный, HDRip] (Лицензия)

Ответить на тему
 
Автор
Сообщение

Пост 13-Фев-2015 22:31

[Q] 

LPPI

-Мамы 3- Производство: Россия, Enjoy Movies
Жанр: комедия, семейный
Год выпуска: 2014 г.
Продолжительность: 01:32:00
Российская премьера: 25 декабря 2014, «Централ Партнершип»-Режиссер: Георгий Малков, Эмиль Никогосян
В ролях: Гарик Харламов, Ольга Волкова, Мария Сёмкина, Андрей Ургант, Евгений Шапошников, Артём Киселёв, Кристина Орса, Анастасия Заворотнюк, Тимур Родригез, Евгений Сморигин, Захар Соколов-Описание: 31 декабря наши Мамы вместо того, чтобы резать оливье и смотреть «Иронию Судьбы», летят в Прагу праздновать Новый Год «по-европейски». Но самолет из-за погодных условий вынужден приземлиться в аэропорту небольшого, но очень красивого и уютного польского городка. Город встречает Мам абсолютно пустыми улицами. Новый Год для местных жителей- спокойный праздник. Наших Мам и их попутчиков это категорически не устраивает, и они решают устроить в этой «провинциальной Европе» настоящий, безбашенный Новый Год «по-нашему»… Дело за малым — найти Деда Мороза, Советское шампанское, оливье, петарды… в общем, всё, что нужно для праздника!-Сэмпл КиноПоиск-Качество видео: HDRip (Лицензия)
Контейнер: AVI
Видео кодек: XviD
Аудио кодек: AC3
Видео: 720x304 (2.37:1), 24 fps, XviD build 50 ~1669 kbps avg, 0.32 bit/pixel
Аудио: 48 kHz, AC3 Dolby Digital, 3/2 (L,C,R,l,r) + LFE ch, ~448 kbps
Cубтитры: отсутствуют
General
Complete name : D:\Mam1.3.2014.O.BDRip.1400MB.avi
Format : AVI
Format/Info : Audio Video Interleave
File size : 1.37 GiB
Duration : 1h 32mn
Overall bit rate : 2 127 Kbps
Writing application : VirtualDubMod 1.5.10.2 (build 2540/release)
Writing library : VirtualDubMod build 2540/release
Video
ID : 0
Format : MPEG-4 Visual
Format profile : Advanced [email protected]
Format settings, BVOP : 2
Format settings, QPel : No
Format settings, GMC : No warppoints
Format settings, Matrix : Default (MPEG)
Codec ID : XVID
Codec ID/Hint : XviD
Duration : 1h 32mn
Bit rate : 1 670 Kbps
Width : 720 pixels
Height : 304 pixels
Display aspect ratio : 2.35:1
Frame rate : 24.000 fps
Color space : YUV
Chroma subsampling : 4:2:0
Bit depth : 8 bits
Scan type : Progressive
Compression mode : Lossy
Bits/(Pixel*Frame) : 0.318
Stream size : 1.07 GiB (78%)
Writing library : XviD 1.2.1 (UTC 2008-12-04)
Audio
ID : 1
Format : AC-3
Format/Info : Audio Coding 3
Mode extension : CM (complete main)
Format settings, Endianness : Big
Codec ID : 2000
Duration : 1h 31mn
Bit rate mode : Constant
Bit rate : 448 Kbps
Channel(s) : 6 channels
Channel positions : Front: L C R, Side: L R, LFE
Sampling rate : 48.0 KHz
Bit depth : 16 bits
Compression mode : Lossy
Stream size : 295 MiB (21%)
Alignment : Split accross interleaves
Interleave, duration : 42 ms (1.00 video frame)
Interleave, preload duratio : 500 ms
Download / Скачать

Хотите скачать бесплатно? Зарегистрируйтесь на сайте (ссылка на регистрацию). Pirat.ca - самый быстрый торрент трекер в рунете!

Как скачивать  ·   Что такое торрент  ·   Рейтинг и ограничения

СерКат

Корсар

Пост 14-Фев-2015 00:32 (спустя 2 часа 1 минута)

[Q] 

спасибо,глянем в семейном кругу
[Профиль]  [ЛС] 

Jek@

Легенда

Пост 14-Фев-2015 08:46 (спустя 8 часов)

[Q] 

Спасибо!!!
[Профиль]  [ЛС] 

СерКат

Корсар

Пост 18-Фев-2015 19:24 (спустя 4 дня)

[Q] 

мне понравился
[Профиль]  [ЛС] 

Police_3000

Морской Волк

Пост 20-Фев-2015 01:56 (спустя 1 день 6 часов)

[Q] 

Спасибо за труды!!! Оценим!!! Пиратка рулит!
[Профиль]  [ЛС] 

Selim

Корсар

Пост 21-Фев-2015 20:38 (спустя 1 день 18 часов)

[Q] 

Скачал, посмотрел. Жаль потерянного времени. Глупо и скучно. Отказать
[Профиль]  [ЛС] 

darkeye

Лоцман

Пост 15-Мар-2015 21:18 (спустя 22 дня)

[Q] 

Enjoy Movies - этим многое сказано... Не качайте!
[Профиль]  [ЛС] 

Пост 17-Мар-2015 14:35 (спустя 1 день 17 часов)

Топик был перенесен из форума Новинки (HD|DVD|BD| TV|SAT|PDTV| - Rips) в форум Российские фильмы
kugesan
 

Aleksander69

Юнга

Пост 01-Апр-2015 11:09 (спустя 16 дней)

[Q] 

Я Дико извиняюсь, но от одной заворотнюк уже воротит! Раздающему спасибо за труд!!!
[Профиль]  [ЛС] 
Показать сообщения:    
Ответить на тему

Текущее время: Сегодня 12:00

Часовой пояс: GMT + 4



Вы не можете начинать темы
Вы не можете отвечать на сообщения
Вы не можете редактировать свои сообщения
Вы не можете удалять свои сообщения
Вы не можете голосовать в опросах
Вы не можете прикреплять файлы к сообщениям
Вы не можете скачивать файлы

▼ Вниз