ML
     
  Уважаемый Гость!
Вы можете поддержать проект и зарегистрироваться у наших партнеров - онлайн-стратегия MyLands. При регистрации в игре Вы получите код, который сможете активировать после регистрации на pirat.ca и получить 1000 дублонов.

Ваш код:
4855957e17f50c5c1236a0f8c4492b2b0bba00a0
 
     

Плохая соседка (Роман Барабаш) [2015 г., Мелодрама, комедия, WEB-DLRip]

Ответить на тему
 
Автор
Сообщение

Пост 15-Фев-2015 16:54

[Q] 

naryshev

Флибустьер

-Плохая соседка-- Производство: Россия / "Star Media"
Режиссер: Роман Барабаш
Жанр: Мелодрама, комедия
Год выпуска: 2015 г.
Продолжительность: 01:34:34
Российская премьера: 15 февраля 2015
В ролях: Анастасия Задорожная, Илья Иосифов, Ада Роговцева, Валерия Ходос, Жанна Эппле, Сергей Калантай, Таисия Шипилова, Екатерина Гулякова, Виталий Салий, Владимир Абазопуло (младший)-Описание: 23-х летняя Катя — гример из провинциального театра. Она привлекательна и хочет добиться успеха в жизни. Для этого она приезжает в большой город. Девушка уверена, что удача всегда на ее стороне, и у нее все получится! Иначе и быть не может! Но судьба все время испытывает Катин оптимизм на прочность. Не заблудится ли Катя в мире больших возможностей? Сможет ли понять, что по-настоящему, важно, а что — второстепенно? Сумеет ли выстоять?-Сэмпл КиноПоиск
Качество видео: WEB-DLRip
Контейнер: AVI
Видео кодек: XviD
Аудио кодек: AC3
Видео: 720x400 (1.80:1), 25 fps, XviD build 50 ~1868 kbps avg, 0.26 bit/pixel
Аудио: 48 kHz, AC3 Dolby Digital, 2/0 (L,R) ch, ~192 kbps
Cубтитры: отсутствуют
Общее
Полное имя : F:\Фильмы\Plohaja.sosedka.WEB-DLRip.avi
Формат : AVI
Формат/Информация : Audio Video Interleave
Размер файла : 1,37 Гбайт
Продолжительность : 1 ч. 34 м.
Общий поток : 2071 Кбит/сек
Программа кодирования : VirtualDubMod 1.5.10.3 | www.virtualdub-fr.org || (build 2550/release)
Библиотека кодирования : VirtualDubMod build 2550/release
Видео
Идентификатор : 0
Формат : MPEG-4 Visual
Профиль формата : Advanced [email protected]
Параметр BVOP формата : 2
Параметр QPel формата : Нет
Параметр GMC формата : Без точки перехода
Параметр матрицы формата : Default (H.263)
Идентификатор кодека : XVID
Идентификатор кодека/Подсказка : XviD
Продолжительность : 1 ч. 34 м.
Битрейт : 1869 Кбит/сек
Ширина : 720 пикселей
Высота : 400 пикселей
Соотношение сторон : 16:9
Частота кадров : 25,000 кадров/сек
Цветовое пространство : YUV
Субдискретизация насыщенности : 4:2:0
Битовая глубина : 8 бит
Тип развёртки : Прогрессивная
Метод сжатия : С потерями
Бит/(Пиксели*Кадры) : 0.260
Размер потока : 1,23 Гбайт (90%)
Библиотека кодирования : XviD 1.2.1 (UTC 2008-12-04)
Аудио
Идентификатор : 1
Формат : AC-3
Формат/Информация : Audio Coding 3
Расширение режима : CM (complete main)
Параметр Endianness формата : Big
Идентификатор кодека : 2000
Продолжительность : 1 ч. 34 м.
Вид битрейта : Постоянный
Битрейт : 192 Кбит/сек
Каналы : 2 канала
Расположение каналов : Front: L R
Частота : 48,0 КГц
Битовая глубина : 16 бит
Метод сжатия : С потерями
Размер потока : 130 Мбайт (9%)
Выравнивание : Разделение по промежуткам
Продолжительность промежутка : 40 мс. (1,00 видеокадр)
Время предзагрузки промежутка : 500 мс.
Скриншоты
Download / Скачать

Хотите скачать бесплатно? Зарегистрируйтесь на сайте (ссылка на регистрацию). Pirat.ca - самый быстрый торрент трекер в рунете!

Как скачивать  ·   Что такое торрент  ·   Рейтинг и ограничения

Пост 15-Фев-2015 18:39 (спустя 1 час 45 минут)

Топик был перенесен из форума Наше кино (Трюм) в форум Новинки (HD|DVD|BD| TV|SAT|PDTV| - Rips)
LPPI
 

(Anzo)

Лоцман

Пост 15-Фев-2015 22:14 (спустя 5 часов)

[Q] 

кто смотрел отпишитесь... Автору респект!!!
[Профиль]  [ЛС] 

Maks_e

Корсар

69

Пост 16-Фев-2015 04:07 (спустя 5 часов)

[Q] 

Посмотрим Спасибо!!! Лови бочку
[Профиль]  [ЛС] 

лысый 777

Морской Волк

Пост 16-Фев-2015 07:51 (спустя 3 часа)

[Q] 

пожалуй забиру Спасибо!!! Автору респект!!!
[Профиль]  [ЛС] 

XMax

Флибустьер

Пост 16-Фев-2015 12:30 (спустя 4 часа)

[Q] 

Спасиба!
Автору респект!!! Лови бочку
[Профиль]  [ЛС] 

gnezd77

Флибустьер

Пост 16-Фев-2015 12:58 (спустя 27 минут)

[Q] 

Очередной Русский бредофильм, написанный по шаблону... На любителя русских сериалов..... ХЗ!!!
[Профиль]  [ЛС] 

dambrina

Флибустьер

Пост 16-Фев-2015 21:07 (спустя 8 часов)

[Q] 

Пиратка рулит!
[Профиль]  [ЛС] 

Miks1977

Морской Волк

Пост 17-Фев-2015 00:00 (спустя 2 часа 52 минуты)

[Q] 

Бредофильм это точно. Не дай бог такое несчастье поселится рядом
[Профиль]  [ЛС] 

Showman

Корсар

Пост 20-Фев-2015 18:32 (спустя 3 дня)

[Q] 

Спасибо! Лови бочку
[Профиль]  [ЛС] 

AlexVl

Пост 04-Апр-2015 12:22 (спустя 1 месяц 11 дней)

[Q] 

Фильм для бап про бап
[Профиль]  [ЛС] 

denis1705

Корсар

Пост 09-Апр-2015 19:31 (спустя 5 дней)

[Q] 

Легкий бабский фильм))) Мне понравилось
[Профиль]  [ЛС] 
Показать сообщения:    
Ответить на тему

Текущее время: Сегодня 06:15

Часовой пояс: GMT + 4



Вы не можете начинать темы
Вы не можете отвечать на сообщения
Вы не можете редактировать свои сообщения
Вы не можете удалять свои сообщения
Вы не можете голосовать в опросах
Вы не можете прикреплять файлы к сообщениям
Вы не можете скачивать файлы

▼ Вниз