ML
     
  Уважаемый Гость!
Вы можете поддержать проект и зарегистрироваться у наших партнеров - онлайн-стратегия MyLands. При регистрации в игре Вы получите код, который сможете активировать после регистрации на pirat.ca и получить 1000 дублонов.

Ваш код:
062e2babcc491faeb40d496cf9a498ac3df6cdd0
 
     

Буду помнить (Виталий Воробьёв) [2010 г., военный, SATRip]

Ответить на тему
 
Автор
Сообщение

Пост 18-Фев-2015 16:13

[Q] 

Мархуз

-Буду помнить-- Производство: Россия, «Гринсити»
Режиссер: Виталий Воробьёв
Жанр: военный
Год выпуска: 2010 г.
Продолжительность: 01:33:50
В ролях: Роман Гольчук, Денис Парамонов, Сергей Маховиков, Елена Подкаминская, Лариса Коршунова, Сергей Апрельский, Сергей Сазонтьев, Анатолий Васильев, Максим Глотов, Ирина Токарчук, Владимир Лысенко, Эльвира Шияпова, Юрий Лопарёв, Игорь Тильтиков, Анна Сафронова, Георгий Левин, Валентин Козачков, Дарья Питерова, Валерия Литвиненко, Инна Руди, Мария Шаменкова, Геннадий Скарга, Анастасия Саламатина, Евгений Штырбул-Описание: Война, 1942 год. Маленький южный город оккупировали фашисты. "Я не еврей, не еврей!" - отчаянно кричит Вадька, сжавшись под прицелом немецкого автомата. Вадька - чернявый тринадцатилетний подросток, сын гречанки и русского, полукровка. Пока его отец сидел в лагере по ложному доносу, он рос на улице и впитывал блатную романтику. Вадька считает отца никчемным человеком. Особенно сейчас, в оккупации, когда другие отцы сражаются на фронте, защищая Родину...-Качество видео: SATRip
Контейнер: AVI
Видео кодек: XviD
Аудио кодек: MP3
Видео: 720x400; 969 kbps; 25 fps; 0.135 bit/pixel
Аудио: 256 kbps; 2 ch; 48 kHz
Cубтитры: отсутствуют
General
Complete name : D:\Torrent\Budu_pomnit_[Pirat.ca].torrent.avi
Format : AVI
Format/Info : Audio Video Interleave
File size : 818 MiB
Duration : 1h 32mn
Overall bit rate : 1 235 Kbps
Writing application : VirtualDubMod 1.5.4.1 (build 2178/release)
Writing library : VirtualDub build 35390/release
Video
ID : 0
Format : MPEG-4 Visual
Format profile : Advanced [email protected]
Format settings, BVOP : 2
Format settings, QPel : No
Format settings, GMC : No warppoints
Format settings, Matrix : Default (H.263)
Muxing mode : Packed bitstream
Codec ID : XVID
Codec ID/Hint : XviD
Duration : 1h 32mn
Bit rate : 969 Kbps
Width : 720 pixels
Height : 400 pixels
Display aspect ratio : 16:9
Frame rate : 25.000 fps
Color space : YUV
Chroma subsampling : 4:2:0
Bit depth : 8 bits
Scan type : Progressive
Compression mode : Lossy
Bits/(Pixel*Frame) : 0.135
Stream size : 642 MiB (78%)
Writing library : XviD 73
Audio
ID : 1
Format : MPEG Audio
Format version : Version 1
Format profile : Layer 3
Mode : Joint stereo
Mode extension : MS Stereo
Codec ID : 55
Codec ID/Hint : MP3
Duration : 1h 32mn
Bit rate mode : Constant
Bit rate : 256 Kbps
Channel(s) : 2 channels
Sampling rate : 48.0 KHz
Compression mode : Lossy
Stream size : 170 MiB (21%)
Alignment : Aligned on interleaves
Interleave, duration : 40 ms (1.00 video frame)
Interleave, preload duratio : 504 ms

Раздача с 14.00 до 2.00 (время московское)
Download / Скачать

Хотите скачать бесплатно? Зарегистрируйтесь на сайте (ссылка на регистрацию). Pirat.ca - самый быстрый торрент трекер в рунете!

Как скачивать  ·   Что такое торрент  ·   Рейтинг и ограничения

Пост 18-Фев-2015 17:37 (спустя 1 час 23 минуты)

Топик был перенесен из форума Наше кино (Трюм) в форум Российские фильмы
LPPI
 
Показать сообщения:    
Ответить на тему

Текущее время: Сегодня 17:39

Часовой пояс: GMT + 4



Вы не можете начинать темы
Вы не можете отвечать на сообщения
Вы не можете редактировать свои сообщения
Вы не можете удалять свои сообщения
Вы не можете голосовать в опросах
Вы не можете прикреплять файлы к сообщениям
Вы не можете скачивать файлы

▼ Вниз