ML
     
  Уважаемый Гость!
Вы можете поддержать проект и зарегистрироваться у наших партнеров - онлайн-стратегия MyLands. При регистрации в игре Вы получите код, который сможете активировать после регистрации на pirat.ca и получить 1000 дублонов.

Ваш код:
21acd5966619d49ad0b90c3305467b4646cc11a8
 
     

Любит не любит (Клим Шипенко) [2014 г., комедия, DVDRip] O (Лицензия)

Ответить на тему
 
Автор
Сообщение

Пост 28-Фев-2015 21:33

[Q] 

LPPI

-Любит не любит- Производство: Россия
Жанр: комедия
Год выпуска: 2014 г.
Продолжительность: 01:20:18
Российская премьера: 4 декабря 2014, «Централ Партнершип»
Дата выхода DVD: 20 января 2015, «CD Land»-Режиссер: Клим Шипенко
В ролях: Максим Матвеев, Светлана Ходченкова, Юрий Колокольников, Любовь Аксенова, Сергей Газаров, Екатерина Васильева, Максим Виторган, Александр Ратников, Никита Панфилов, Олег Комаров-Описание: Леша и Алена вот-вот должны пожениться. И все бы ничего, если бы не знакомство Леши с известной журналисткой Ирой накануне помолвки. Её образ никак не вписывается в рамки привычной для Алексея жизни. Ира вносит хаос в его жизнь, а Алёна — наивная девушка, любит его таким, какой он есть, и мечтает стать его женой.
Авантюризм Иры и ее готовность совершать безумные поступки дают Леше понять, что его жизнь может быть гораздо красочнее. Но готов ли он к авантюрным поступкам, когда на кону счастливое будущее с Аленой?- -Качество видео: DVDRip [Лицензия]
Контейнер: AVI
Видео кодек: XviD
Аудио кодек: AC3
Видео: 720x304 (2.37:1), 25 fps, XviD build 50 ~1980 kbps avg, 0.36 bit/pixel
Аудио: 48 kHz, AC3 Dolby Digital, 3/2 (L,C,R,l,r) + LFE ch, ~448 kbps
Cубтитры: отсутствуют
General
Complete name : D:\Lybit.ne.lybit.2014.O.DVDRip.1400Mb.avi
Format : AVI
Format/Info : Audio Video Interleave
File size : 1.37 GiB
Duration : 1h 20mn
Overall bit rate : 2 438 Kbps
Video
ID : 0
Format : MPEG-4 Visual
Format profile : Advanced [email protected]
Format settings, BVOP : 2
Format settings, QPel : No
Format settings, GMC : No warppoints
Format settings, Matrix : Custom
Codec ID : XVID
Codec ID/Hint : XviD
Duration : 1h 20mn
Bit rate : 1 980 Kbps
Width : 720 pixels
Height : 304 pixels
Display aspect ratio : 2.35:1
Frame rate : 25.000 fps
Color space : YUV
Chroma subsampling : 4:2:0
Bit depth : 8 bits
Scan type : Progressive
Compression mode : Lossy
Bits/(Pixel*Frame) : 0.362
Stream size : 1.11 GiB (81%)
Writing library : XviD 1.2.1 (UTC 2008-12-04)
Audio
ID : 1
Format : AC-3
Format/Info : Audio Coding 3
Mode extension : CM (complete main)
Format settings, Endianness : Big
Codec ID : 2000
Duration : 1h 20mn
Bit rate mode : Constant
Bit rate : 448 Kbps
Channel(s) : 6 channels
Channel positions : Front: L C R, Side: L R, LFE
Sampling rate : 48.0 KHz
Bit depth : 16 bits
Compression mode : Lossy
Stream size : 257 MiB (18%)
Alignment : Aligned on interleaves
Interleave, duration : 40 ms (1.00 video frame)
Interleave, preload duratio : 512 ms
Download / Скачать

Хотите скачать бесплатно? Зарегистрируйтесь на сайте (ссылка на регистрацию). Pirat.ca - самый быстрый торрент трекер в рунете!

Как скачивать  ·   Что такое торрент  ·   Рейтинг и ограничения

Пост 28-Фев-2015 21:36 (спустя 2 минуты)

Топик был перенесен из форума Наше кино (Трюм) в форум Новинки (HD|DVD|BD| TV|SAT|PDTV| - Rips)
kugesan
 

gnezd77

Флибустьер

Пост 28-Фев-2015 22:04 (спустя 30 минут)

[Q] 

Хорошая комедия.... !COOL! Лови бочку
[Профиль]  [ЛС] 

Jek@

Легенда

Пост 01-Мар-2015 08:50 (спустя 10 часов)

[Q] 

Спасибо!!! .
[Профиль]  [ЛС] 

лысый 777

Морской Волк

Пост 01-Мар-2015 10:06 (спустя 1 час 16 минут)

[Q] 

посмотрим Спасибо!!!
[Профиль]  [ЛС] 

Ivan13

Шкипер

Пост 01-Мар-2015 10:49 (спустя 42 минуты)

[Q] 

глянемзаценим Лови бочку
[Профиль]  [ЛС] 

Lana38

Корсар

Пост 01-Мар-2015 11:25 (спустя 36 минут)

[Q] 

Спасибо, попробую посмотреть... Лови бочку
[Профиль]  [ЛС] 

BiOHAZARD

Корсар

503

Пост 02-Мар-2015 13:53 (спустя 1 день 2 часа)

[Q] 

СПАСИБО!!!!!!!!!!!! Автору респект!!! Лови бочку
[Профиль]  [ЛС] 

svat74

Корсар

Пост 02-Мар-2015 15:51 (спустя 1 час 57 минут)

[Q] 

качну для жены Автору респект!!!
[Профиль]  [ЛС] 

ss80

Флибустьер

36

Пост 15-Мар-2015 21:19 (спустя 13 дней)

[Q] 

!COOL! Спасибо!!!
[Профиль]  [ЛС] 

Zasedatelev

Морской Волк

Пост 16-Мар-2015 22:14 (спустя 1 день)

[Q] 

Хорошей комедией это можно назвать только в параллельной вселенной. Асексуальная старушка Ходченкова, которая просто задолбала уже своей однотипностью, не зависимо от исполняемой роли - ну никак не подходит на роль журналистки оторвы. Откровенно убогие диалоги (чего стоит только эпизод в самолёте), предсказуемые сцены.. никакой оригинальности в сюжете. Это комедия? это просто серое убожество и смешного в этом кино ровно столько, сколько страшного в новом Репортаже апокалипсиса.
Фанатам русской комедии смотреть однозначно. Любителям хорошего юмора, сюжета, хоть какой-то, хоть малююююсенькой качественной игры актёров - перекреститься и забыть.
[Профиль]  [ЛС] 
Показать сообщения:    
Ответить на тему

Текущее время: Сегодня 23:19

Часовой пояс: GMT + 4



Вы не можете начинать темы
Вы не можете отвечать на сообщения
Вы не можете редактировать свои сообщения
Вы не можете удалять свои сообщения
Вы не можете голосовать в опросах
Вы не можете прикреплять файлы к сообщениям
Вы не можете скачивать файлы

▼ Вниз