ML
     
  Уважаемый Гость!
Вы можете поддержать проект и зарегистрироваться у наших партнеров - онлайн-стратегия MyLands. При регистрации в игре Вы получите код, который сможете активировать после регистрации на pirat.ca и получить 1000 дублонов.

Ваш код:
4855957e17f50c5c1236a0f8c4492b2b0bba00a0
 
     

Испытание (Александр Котт) [2014 г., драма, WEB-DLRip]

Ответить на тему
 
Автор
Сообщение

Пост 12-Мар-2015 12:51

[Q] 

ara1205

-Испытание-- Производство: Россия
Год выпуска: 2014 г.
Жанр: драма
Продолжительность: 01:32:03-Режиссер: Александр Котт-В ролях: Елена Ан, Данила Рассомахин, Карим Пакачаков, Нариман Бекбулатов-Арешев, Эдуард Галкин, Дмитрий Семенов, Юрий Пимкин, Игорь Ливенцов, Мирослав Тузин, Рустем Османов, Расим Мамутов, Александр Ким, Асия Ким, Виктор Ким, Саиде Кенжалиева, Зоре Бекирова, Андрей Захаров, Евгений Пухкий, Игорь Салимонов, Ринат Бекташев, Денис Сираев, Андрей Корниенко, Андрей Селезнев, Сергей Халиченко, Энвер Белялов, Павел Рассомахин-Описание: Они живут в степи. Отец и дочь. Ничто не может нарушить вечный порядок. Завтра наступает всегда. И каждое утро отец уезжает работать. И она остается одна. Ждать отца. И чувствовать. Двое любят ее. Она любит каждого. Любовь нельзя поделить.
Однажды решение приходит само. Оттуда, где солнце.- -Качество видео: WEB-DLRip
Контейнер: AVI
Видео кодек: XviD
Аудио кодек: AC3
Видео: 720x304, 25 fps, 1876 kbps avg, 0.343 bit/pixel
Аудио: 48 kHz, AC3 Dolby Digital, 3/2 (L,C,R,l,r) + LFE ch, ~384 kbps
Cубтитры: отсутствуют-
Общее
Полное имя : C:\Users\Roman\Pictures\Испытание\Ispytanie.2014.WBDLRip.avi
Формат : AVI
Формат/Информация : Audio Video Interleave
Размер файла : 1,46 Гбайт
Продолжительность : 1 ч. 32 м.
Общий поток : 2269 Кбит/сек
Программа кодирования : VirtualDubMod 1.5.10.3 | www.virtualdub-fr.org || (build 2550/release)
Библиотека кодирования : VirtualDubMod build 2550/release
Видео
Идентификатор : 0
Формат : MPEG-4 Visual
Профиль формата : Advanced [email protected]
Параметр BVOP формата : 1
Параметр QPel формата : Нет
Параметр GMC формата : Без точки перехода
Параметр матрицы формата : Выборочная
Идентификатор кодека : XVID
Идентификатор кодека/Подсказка : XviD
Продолжительность : 1 ч. 32 м.
Битрейт : 1876 Кбит/сек
Ширина : 720 пикселей
Высота : 304 пикселя
Соотношение сторон : 2,35:1
Частота кадров : 25,000 кадров/сек
Цветовое пространство : YUV
Субдискретизация насыщенности : 4:2:0
Битовая глубина : 8 бит
Тип развёртки : Прогрессивная
Метод сжатия : С потерями
Бит/(Пиксели*Кадры) : 0.343
Размер потока : 1,21 Гбайт (83%)
Библиотека кодирования : XviD 73
Аудио
Идентификатор : 1
Формат : AC-3
Формат/Информация : Audio Coding 3
Расширение режима : CM (complete main)
Параметр Endianness формата : Big
Идентификатор кодека : 2000
Продолжительность : 1 ч. 32 м.
Вид битрейта : Постоянный
Битрейт : 384 Кбит/сек
Каналы : 6 каналов
Расположение каналов : Front: L C R, Side: L R, LFE
Частота : 48,0 КГц
Битовая глубина : 16 бит
Метод сжатия : С потерями
Размер потока : 253 Мбайт (17%)
Выравнивание : Разделение по промежуткам
Продолжительность промежутка : 40 мс. (1,00 видеокадр)
Время предзагрузки промежутка : 500 мс.
-
-
-
Download / Скачать

Хотите скачать бесплатно? Зарегистрируйтесь на сайте (ссылка на регистрацию). Pirat.ca - самый быстрый торрент трекер в рунете!

Как скачивать  ·   Что такое торрент  ·   Рейтинг и ограничения

polozm

Легенда

Пост 12-Мар-2015 13:18 (спустя 27 минут)

[Q] 

спасибо,надо глянуть

_________________
mac mini -2.0 GHz Intel Core i7/ 8 GB DDR3. /Intel HD 3000(512mb)OS X 10.9 Mavericks
[Профиль]  [ЛС] 

madvados1

Морской Волк

Пост 12-Мар-2015 14:51 (спустя 1 час 33 минуты)

[Q] 

рейтинг хороший, глянем Спасибо!!! Лови бочку
[Профиль]  [ЛС] 

osw1

Морской Волк

Пост 12-Мар-2015 15:31 (спустя 39 минут)

[Q] 

Кто посмотрел уже, поделитесь впечатлением.
[Профиль]  [ЛС] 

gnezd77

Флибустьер

Пост 12-Мар-2015 22:07 (спустя 6 часов)

[Q] 

убедили..... забираю... Пиратка рулит! Спасибо!!!
[Профиль]  [ЛС] 

hevard

Гроза морей

2110

Пост 13-Мар-2015 12:28 (спустя 14 часов)

[Q] 

Описание фильма, как диктант для дебилов в "спецыге"... ))))

_________________
-Я старый пират и не знаю слов лицензионного соглашения...
[Профиль]  [ЛС] 

asuslx

Шкипер

Пост 13-Мар-2015 13:45 (спустя 1 час 16 минут)

[Q] 

описание интригует)
[Профиль]  [ЛС] 

rsel

Морской Волк

Пост 13-Мар-2015 20:15 (спустя 6 часов)

[Q] 

Описание многообещающее... an
[Профиль]  [ЛС] 

Alex270

Шкипер

Пост 16-Мар-2015 07:23 (спустя 2 дня 11 часов)

[Q] 

Ещё человек 20 напишите что надо глянуть,Описание многообещающее и лови бочку. А фильм так ни кто и не посмотрит......
[Профиль]  [ЛС] 

Мишки

Морской Волк

Пост 16-Мар-2015 12:35 (спустя 5 часов)

[Q] 

Мне фильм не пошёл, странный, скучный, неординарный.

_________________
Это всего лишь игра, настройся на волну позитива!:)
[Профиль]  [ЛС] 

mazur1981

Шкипер

Пост 16-Мар-2015 13:37 (спустя 1 час 1 минута)

[Q] 

Посмотрел. Впечатление от фильма необычное. Снято тоже необычно. За весь фильм вы не услышите ни одного диалога, но при этом смысл ясен на протяжении всего просмотра. Кому надоест смотреть и будет не осилить до конца, перемотайте на 1-23-00 и досмотрите до конца, будет чему удивиться.
[Профиль]  [ЛС] 

shapirus

Штурман

Пост 17-Мар-2015 14:35 (спустя 1 день)

[Q] 

Фильм понравился. Акцент сделан не на сюжете а на картинке, т.е определение "художественный" оправдывает полностью. То что нет диалогов подчеркивает данное. Думаю у почитателей творчества Тарковского фильм вызовет полный восторг, для остальных фильм может показаться скучноватым. Смотреть стоит однозначно. Всем качать!!!
[Профиль]  [ЛС] 

enemym

Лоцман

Пост 20-Апр-2016 03:06 (спустя 1 год 1 месяц)

[Q] 

Инсайдерская. Оператор картины Леван Капанадзе получил премию "Белый квадрат" за эту картину. "Белый квадрат" - высшая операторская награда в России. Он победил и Михалкова, и Кончаловского, да и "Левиафан", точнее операторов этих картин.
[Профиль]  [ЛС] 
Показать сообщения:    
Ответить на тему

Текущее время: Сегодня 06:14

Часовой пояс: GMT + 4



Вы не можете начинать темы
Вы не можете отвечать на сообщения
Вы не можете редактировать свои сообщения
Вы не можете удалять свои сообщения
Вы не можете голосовать в опросах
Вы не можете прикреплять файлы к сообщениям
Вы не можете скачивать файлы

▼ Вниз