ML
     
  Уважаемый Гость!
Вы можете поддержать проект и зарегистрироваться у наших партнеров - онлайн-стратегия MyLands. При регистрации в игре Вы получите код, который сможете активировать после регистрации на pirat.ca и получить 1000 дублонов.

Ваш код:
062e2babcc491faeb40d496cf9a498ac3df6cdd0
 
     

Пять невест (Карен Оганесян) [2011 г., комедия, HDRip-AVC] [internal release]

Ответить на тему
 
Автор
Сообщение

Пост 23-Янв-2012 16:49

[Q] 

zyyx

--Пять невест-- Год выпуска: 2011
Мировая премьера: 29 сентября 2011
Российская премьера: 29 сентября 2011, «Централ Партнершип»
Дата выхода DVD: 27 октября 2011, «Новый Диск»
Дата выхода Blu-Ray: 19 января 2012, «Новый Диск»
Страна: Россия
Жанр: комедия
Продолжительность: 01:43:19
Перевод: Не требуется [Лицензия]
Режиссер: Карен Оганесян
В ролях: Данила Козловский, Елизавета Боярская, Светлана Ходченкова, Юлия Пересильд, Ксения Роменкова, Ирина Пегова, Артур Смольянинов,, Владимир Яглыч, Александр Лойе, Хорен Левонян
Описание: Май 1945 года. Вся страна ликует и строит планы на новую послевоенную жизнь. Счастливые воины-победители, дошедшие до Берлина, мечтают вернуться героями домой. Но их не спешат отпускать… Очень расстроены этим обстоятельством бравые летчики-истребители Вадик, Леша, Гарик, Ваня и Миша. Ведь в их отсутствие всех красивых девчонок могут разобрать!
Леше Каверину повезло — его отправляют в командировку на Родину. У друзей рождается авантюрный план: Леша должен найти друзьям невест и жениться на них, используя удостоверения ребят. И на все про все у него всего одни сутки…
Источник/Качество: HDRip-AVC | Сэмпл
Формат: MKV
Видео кодек: H.26x
Аудио кодек: AC3
Видео: 1024x552, 25.000 fps, 1640 Kbps
Аудио: 48.0 KHz, 6 ch, 384 Kbps
General
Complete name : F:\zyyx\Pjat.nevest.2011.HDRip-AVC.zyyx.mkv
Format : Matroska
File size : 1.46 GiB
Duration : 1h 43mn
Overall bit rate : 2 025 Kbps
Encoded date : UTC 2012-01-22 12:02:55
Writing application : mkvmerge v4.6.0 ('Still Crazy After All These Years') сборка от Mar 13 2011 18:33:29
Writing library : libebml v1.2.0 + libmatroska v1.1.0
Video
ID : 1
Format : AVC
Format/Info : Advanced Video Codec
Format profile : [email protected]
Format settings, CABAC : Yes
Format settings, ReFrames : 16 frames
Muxing mode : Container [email protected]
Codec ID : V_MPEG4/ISO/AVC
Duration : 1h 43mn
Bit rate : 1 600 Kbps
Nominal bit rate : 1 640 Kbps
Width : 1 024 pixels
Height : 552 pixels
Display aspect ratio : 1.855
Frame rate : 25.000 fps
Resolution : 24 bits
Colorimetry : 4:2:0
Scan type : Progressive
Bits/(Pixel*Frame) : 0.113
Stream size : 1.15 GiB (79%)
Writing library : x264 core 114 r1924 08d04a4
Audio
ID : 2
Format : AC-3
Format/Info : Audio Coding 3
Codec ID : A_AC3
Duration : 1h 43mn
Bit rate mode : Constant
Bit rate : 384 Kbps
Channel(s) : 6 channels
Channel positions : Front: L C R, Surround: L R, LFE
Sampling rate : 48.0 KHz
Stream size : 284 MiB (19%)
Download / Скачать

Хотите скачать бесплатно? Зарегистрируйтесь на сайте (ссылка на регистрацию). Pirat.ca - самый быстрый торрент трекер в рунете!

Как скачивать  ·   Что такое торрент  ·   Рейтинг и ограничения

Пост 23-Янв-2012 16:53 (спустя 3 минуты)

Топик был перенесен из форума Наше Кино в форум Новинки (HD|DVD|BD|TV|SAT|PDTV| - Rips)

Skinwalker
 

skula

Шкипер

Пост 24-Янв-2012 18:24 (спустя 1 день 1 час)

[Q] 

клёвый фильм! смотреть всем! не пожалеете!
[Профиль]  [ЛС] 

BOBROFF

Морской Волк

Пост 24-Янв-2012 19:56 (спустя 1 час 32 минуты)

[Q] 

Посмотрим
[Профиль]  [ЛС] 

solosa

Морской Волк

Пост 30-Янв-2012 22:56 (спустя 6 дней)

[Q] 

мне очень рекомендовали, спасибо
[Профиль]  [ЛС] 
Показать сообщения:    
Ответить на тему

Текущее время: Сегодня 17:37

Часовой пояс: GMT + 4



Вы не можете начинать темы
Вы не можете отвечать на сообщения
Вы не можете редактировать свои сообщения
Вы не можете удалять свои сообщения
Вы не можете голосовать в опросах
Вы не можете прикреплять файлы к сообщениям
Вы не можете скачивать файлы

▼ Вниз