ML
     
  Уважаемый Гость!
Вы можете поддержать проект и зарегистрироваться у наших партнеров - онлайн-стратегия MyLands. При регистрации в игре Вы получите код, который сможете активировать после регистрации на pirat.ca и получить 1000 дублонов.

Ваш код:
69f316be79867e9bf99caee9682d20bb11964507
 
     

12 месяцев: Новая сказка (Денис Елеонский) [2014 г., фэнтези, WEB-DLRip] Original (RUS)[iTunes]

Ответить на тему
 
Автор
Сообщение

Пост 11-Апр-2015 15:39

[Q] 

aleksey99

--12 месяцев: Новая сказка-- Производство: Россия, Никола Фильм
Год выпуска: 2014 г.
Жанр: фэнтези
Продолжительность: 01:24:01--Мировая премьера: 19 февраля 2015
Премьера (РФ): 19 февраля 2015, «Люксор»--Режиссер: Денис Елеонский--В ролях: Сергей Друзьяк, Антон Юрьев, Анастасия Мельникова, Юлия Такшина, Евгений Воскресенский, Дмитрий Гогу, Владимир Кристовский, Андрей Федорцов, Юрий Гальцев, Андрей Леонов--Описание: Девочка из нашего времени попадает в сказочный мир. Среди зимы она должна принести из леса букет подснежников, чтобы наступил Новый Год, который решил отменить злой королевский советник. И только тогда она вернется к родителям.-- --Качество видео: WEB-DLRip
Контейнер: AVI
Видео кодек: XviD
Аудио кодек: AC3
Видео: 720x320 (2.25:1), 25 fps, XviD build 50 ~1935 kbps avg, 0.34 bit/pixel
Аудио: 48 kHz, AC3 Dolby Digital, 3/2 (L,C,R,l,r) + LFE ch, ~384 kbps
Cубтитры: отсутствуют
Общее
Полное имя : E:\T2\12 месяцев Новая сказка.2015.O.WEB-DLRip.1400Mb.avi
Формат : AVI
Формат/Информация : Audio Video Interleave
Размер файла : 1,37 Гбайт
Продолжительность : 1 ч. 24 м.
Общий поток : 2330 Кбит/сек
Программа кодирования : VirtualDubMod 1.5.10.2 (build 2540/release)
Библиотека кодирования : VirtualDubMod build 2540/release
Видео
Идентификатор : 0
Формат : MPEG-4 Visual
Профиль формата : Advanced [email protected]
Параметр BVOP формата : 2
Параметр QPel формата : Нет
Параметр GMC формата : Без точки перехода
Параметр матрицы формата : Default (MPEG)
Идентификатор кодека : XVID
Идентификатор кодека/Подсказка : XviD
Продолжительность : 1 ч. 24 м.
Битрейт : 1936 Кбит/сек
Ширина : 720 пикселей
Высота : 320 пикселей
Соотношение сторон : 2,25:1
Частота кадров : 25,000 кадров/сек
Цветовое пространство : YUV
Субдискретизация насыщенности : 4:2:0
Битовая глубина : 8 бит
Тип развёртки : Прогрессивная
Метод сжатия : С потерями
Бит/(Пиксели*Кадры) : 0.336
Размер потока : 1,14 Гбайт (83%)
Библиотека кодирования : XviD 1.2.1 (UTC 2008-12-04)
Аудио
Идентификатор : 1
Формат : AC-3
Формат/Информация : Audio Coding 3
Расширение режима : CM (complete main)
Параметр Endianness формата : Big
Идентификатор кодека : 2000
Продолжительность : 1 ч. 24 м.
Вид битрейта : Постоянный
Битрейт : 384 Кбит/сек
Каналы : 6 каналов
Расположение каналов : Front: L C R, Side: L R, LFE
Частота : 48,0 КГц
Битовая глубина : 16 бит
Метод сжатия : С потерями
Размер потока : 231 Мбайт (16%)
Выравнивание : Разделение по промежуткам
Продолжительность промежутка : 40 мс. (1,00 видеокадр)
Время предзагрузки промежутка : 500 мс.
Трейлер
Download / Скачать

Хотите скачать бесплатно? Зарегистрируйтесь на сайте (ссылка на регистрацию). Pirat.ca - самый быстрый торрент трекер в рунете!

Как скачивать  ·   Что такое торрент  ·   Рейтинг и ограничения

Ganjik

Пост 11-Апр-2015 17:19 (спустя 1 час 39 минут)

[Q] 

очередная "реальная сказка" отечественного говнопрома?
режиссер Денис Елеонский
сценарий Денис Елеонский
странно, что он еще не оператор и не главный герой.
[Профиль]  [ЛС] 

Cepreu

Морской Волк

Пост 11-Апр-2015 18:43 (спустя 1 час 24 минуты)

[Q] 

665660очередная "реальная сказка" отечественного говнопрома?
Если наркоману что-то не нравится в нашей стране, значит страна выздоравливает
[Профиль]  [ЛС] 

Ganjik

Пост 11-Апр-2015 22:19 (спустя 3 часа)

[Q] 

Если наркоману что-то не нравится в нашей стране, значит страна выздоравливает
если идиот предвзято кого-то называет наркоманом, то страна все еще в жопе.
[Профиль]  [ЛС] 

zlotosalien

Флибустьер

Пост 12-Апр-2015 01:41 (спустя 3 часа)

[Q] 

Если визуальный ряд еще ни чего такой) То, игра мальчика и девочки просто ужасна! Как будто текст тупо читают по бумажке!
[Профиль]  [ЛС] 

UncleGB

Корсар

Пост 13-Апр-2015 10:00 (спустя 1 день 8 часов)

[Q] 

Уже и сюда политику притянули....Пираты вне политики, вообще-то.
[Профиль]  [ЛС] 

Пост 12-Май-2015 21:41 (спустя 29 дней)

Топик был перенесен из форума Новинки (HD|DVD|BD| TV|SAT|PDTV| - Rips) в форум Российские фильмы
aleksey99
 
Показать сообщения:    
Ответить на тему

Текущее время: Сегодня 14:29

Часовой пояс: GMT + 4



Вы не можете начинать темы
Вы не можете отвечать на сообщения
Вы не можете редактировать свои сообщения
Вы не можете удалять свои сообщения
Вы не можете голосовать в опросах
Вы не можете прикреплять файлы к сообщениям
Вы не можете скачивать файлы

▼ Вниз