ML
     
  Уважаемый Гость!
Вы можете поддержать проект и зарегистрироваться у наших партнеров - онлайн-стратегия MyLands. При регистрации в игре Вы получите код, который сможете активировать после регистрации на pirat.ca и получить 1000 дублонов.

Ваш код:
2a3da67fd641d69eeebb7cb965232435a70eaa24
 
     

Берцы (Екатерина Шагалова) [2014 г., драма, HDTVRip] Original (RUS)

Ответить на тему
 
Автор
Сообщение

Пост 11-Апр-2015 23:01

[Q] 

aleksey99

--Берцы-- Производство: Россия, Пятое июня
Год выпуска: 2014 г.
Жанр: драма
Продолжительность: 01:40:07--Премьера (РФ): 12 февраля 2015, «Пятое июня»--Режиссер: Екатерина Шагалова--В ролях: Тимофей Каратаев, Ксения Лаврова-Глинка, Татьяна Лютаева, Алексей Барабаш, Дарья Екамасова, Мария Антонова, Георгий Губин--Описание: Сергей — молодой независимый тележурналист, уволен с работы за слишком смелый репортаж. Ирина — ведущая кабельного ТВ, живет в гражданском браке, не верит, что ее жизнь может измениться. Берцы — высокие армейские ботинки, которые Сергею подарил друг, сказав, что они «приводят куда надо». Сергея они приводят к Ирине. Жизнь обоих стремительно меняется к лучшему. Но вскоре берцы оказываются выброшенными на свалку.-- --Качество видео: HDTVRip
Контейнер: AVI
Видео кодек: XviD
Аудио кодек: AC3
Видео: 720x400 (1.80:1), 25 fps, XviD build 50 ~1889 kbps avg, 0.26 bit/pixel
Аудио: 48 kHz, AC3 Dolby Digital, 2/0 (L,R) ch, ~192 kbps
Cубтитры: отсутствуют
Общее
Полное имя : E:\T2\bePcY.2014.O.HDTVRip.avi
Формат : AVI
Формат/Информация : Audio Video Interleave
Размер файла : 1,46 Гбайт
Продолжительность : 1 ч. 40 м.
Общий поток : 2092 Кбит/сек
Программа кодирования : VirtualDubMod 1.5.10.2 (build 2540/release)
Библиотека кодирования : VirtualDubMod build 2540/release
Видео
Идентификатор : 0
Формат : MPEG-4 Visual
Профиль формата : Advanced [email protected]
Параметр BVOP формата : 1
Параметр QPel формата : Нет
Параметр GMC формата : Без точки перехода
Параметр матрицы формата : Default (MPEG)
Идентификатор кодека : XVID
Идентификатор кодека/Подсказка : XviD
Продолжительность : 1 ч. 40 м.
Битрейт : 1890 Кбит/сек
Ширина : 720 пикселей
Высота : 400 пикселей
Соотношение сторон : 16:9
Частота кадров : 25,000 кадров/сек
Цветовое пространство : YUV
Субдискретизация насыщенности : 4:2:0
Битовая глубина : 8 бит
Тип развёртки : Прогрессивная
Метод сжатия : С потерями
Бит/(Пиксели*Кадры) : 0.262
Размер потока : 1,32 Гбайт (90%)
Библиотека кодирования : XviD 1.2.1 (UTC 2008-12-04)
Аудио
Идентификатор : 1
Формат : AC-3
Формат/Информация : Audio Coding 3
Расширение режима : CM (complete main)
Параметр Endianness формата : Big
Идентификатор кодека : 2000
Продолжительность : 1 ч. 40 м.
Вид битрейта : Постоянный
Битрейт : 192 Кбит/сек
Каналы : 2 канала
Расположение каналов : Front: L R
Частота : 48,0 КГц
Битовая глубина : 16 бит
Метод сжатия : С потерями
Размер потока : 138 Мбайт (9%)
Выравнивание : Соединение по промежуткам
Продолжительность промежутка : 40 мс. (1,00 видеокадр)
Время предзагрузки промежутка : 512 мс.
Трейлер
Download / Скачать

Хотите скачать бесплатно? Зарегистрируйтесь на сайте (ссылка на регистрацию). Pirat.ca - самый быстрый торрент трекер в рунете!

Как скачивать  ·   Что такое торрент  ·   Рейтинг и ограничения

sanechik777777

Мичман

Пост 12-Апр-2015 00:38 (спустя 1 час 36 минут)

[Q] 

29 Очередной вброс? 29
[Профиль]  [ЛС] 

oper73

Морской Волк

Пост 12-Апр-2015 01:38 (спустя 1 час)

[Q] 

На втором срине это секас? ca
[Профиль]  [ЛС] 

alex198408

Морской Волк

Пост 12-Апр-2015 01:53 (спустя 14 минут)

[Q] 

как фильм? Вы лучшие!
[Профиль]  [ЛС] 

Apostle358

Корсар

151

Пост 12-Апр-2015 06:35 (спустя 4 часа)

[Q] 

Более идиотского описания сюжета я еще не видел...
[Профиль]  [ЛС] 

grosboy

Флибустьер

Пост 12-Апр-2015 08:41 (спустя 2 часа 5 минут)

[Q] 

Более идиотского описания сюжета я еще не видел..
С вами трудно поспорить. Надо глянуть...

_________________
Щастье есть - его не может не быть...
[Профиль]  [ЛС] 

KadaFFi

Корсар

Пост 12-Апр-2015 10:53 (спустя 2 часа 11 минут)

[Q] 

Фильм должен быть адовым трешем, похлеще чем "Левиафан".

_________________
[Профиль]  [ЛС] 

Nech

Шкипер

Пост 12-Апр-2015 20:04 (спустя 9 часов)

[Q] 

665940Фильм должен быть адовым трешем, похлеще чем "Левиафан".
братан, ты не ошибся, но "Левиафан" хоть можно смотреть , а за этот трешняк надо режиссера разжаловать до помощника оператора. Трафик потрачен зря!
[Профиль]  [ЛС] 

AlienAmigo

Шкипер

Пост 12-Апр-2015 21:26 (спустя 1 час 21 минута)

[Q] 

братан, ты не ошибся, но "Левиафан" хоть можно смотреть , а за этот трешняк надо режиссера разжаловать до помощника оператора.
ему и этого много. Максимум — помощник осветителя
[Профиль]  [ЛС] 

gnezd77

Флибустьер

Пост 13-Апр-2015 17:06 (спустя 19 часов)

[Q] 

ХЗ!!! На любителя ... что к чему.... весь фильм деруца и бухают..... Очень похоже на левиофан... Мне не понравилось....
Добавлено спустя 54 секунды:
А он точно в кино был ???
[Профиль]  [ЛС] 

Михаэль12345

Шкипер

Пост 15-Апр-2015 02:13 (спустя 1 день 9 часов)

[Q] 

665896Более идиотского описания сюжета я еще не видел...
Точно! после описания глаза отказываются смотреть этот треш)
[Профиль]  [ЛС] 

Ahzool

Корсар

Пост 16-Апр-2015 19:39 (спустя 1 день 17 часов)

[Q] 

...я, кажись, понял о чем кино, о ботинках, которые мстят))))короч, хоррор, по типу покрышки-убийцы...ну иль как там....
З.Ы.
...досмотрел, я так и не понял о чём сей "шедевр"....
з.з.ы.
на до было и не смотреть.....

_________________
Si non es occupatus quid natum moriendo occupatus es,beauty creatur vultus.
[Профиль]  [ЛС] 

лысый 777

Морской Волк

Пост 17-Апр-2015 13:39 (спустя 17 часов)

[Q] 

фильм полная х.... Отказать
[Профиль]  [ЛС] 

kudrjavy

Флибустьер

Пост 30-Апр-2015 00:27 (спустя 12 дней)

[Q] 

Посмотрим)) автору за труд Автору респект!!!

_________________
Девушки-как печеньки: ломаются,пока не намокнут...
[Профиль]  [ЛС] 

Alcor

Морской Волк

Пост 08-Май-2015 20:25 (спустя 8 дней)

[Q] 

Фильм конечно редкостная бредятина, но всё-же один раз посмотреть интересно.
На любителя
[Профиль]  [ЛС] 

Пост 12-Май-2015 21:47 (спустя 4 дня)

Топик был перенесен из форума Новинки (HD|DVD|BD| TV|SAT|PDTV| - Rips) в форум Российские фильмы
aleksey99
 
Показать сообщения:    
Ответить на тему

Текущее время: Сегодня 01:15

Часовой пояс: GMT + 4



Вы не можете начинать темы
Вы не можете отвечать на сообщения
Вы не можете редактировать свои сообщения
Вы не можете удалять свои сообщения
Вы не можете голосовать в опросах
Вы не можете прикреплять файлы к сообщениям
Вы не можете скачивать файлы

▼ Вниз