ML
     
  Уважаемый Гость!
Вы можете поддержать проект и зарегистрироваться у наших партнеров - онлайн-стратегия MyLands. При регистрации в игре Вы получите код, который сможете активировать после регистрации на pirat.ca и получить 1000 дублонов.

Ваш код:
74c28610d77aaac24ba694c4128f3b9b46b04220
 
     

Гагарин. Первый в космосе (Павел Пархоменко) [2013 г., драма, биография, история, BDRip] Лицензия

Ответить на тему
 
Автор
Сообщение

Пост 12-Апр-2015 10:35

[Q] 

LPPI

-Гагарин. Первый в космосе- Производство: Россия
Год выпуска: 2013 г.
Жанр: драма, биография, история
Продолжительность: 01:48:10
Мировая премьера: 6 июня 2013
Российская премьера: 6 июня 2013, «Централ Партнершип»
Дата выхода DVD: 18 июля 2013, «CD Land»
Дата выхода Blu-Ray: 18 июля 2013, «CD Land»-Перевод: Оригинальный [Лицензия]-Режиссер: Павел Пархоменко
В ролях: Ярослав Жалнин (Юрий Гагарин), Михаил Филиппов (академик Королев), Владимир Стеклов (генерал Каманин), Ольга Иванова (Валентина Гагарина), Вадим Мичман (Герман Титов), Даниил Воробьев (Григорий Нелюбов), Надежда Маркина (мать Гагарина, Анна Тимофеевна Гагарина), Виктор Проскурин (отец Гагарина, Алексей Иванович Гагарин), Инга Стрелкова-Оболдина (медсестра), Валерий Афанасьев (лодочник), Евгений Ткачук (старший лейтенант), Анатолий Гущин (Алексей Леонов)-Описание: Фильм посвящен первым шагам человечества на пути освоения космоса и непосредственно судьбе первого космонавта Ю. А. Гагарина. Основной лейтмотив — борьба за право быть первым: соревнование в первом отряде космонавтов; конкуренция технологий в ракетостроении; противостояние сверхдержав — СССР и США.
В первый отряд космонавтов отбирали из трёх тысяч летчиков-истребителей по всей стране. В легендарную двадцатку попали лучшие из лучших. Кто из них полетит первым, не знал никто. На этом пути пришлось бороться не только с земным притяжением…- -Качество видео: BDRip
Контейнер: AVI
Видео кодек: XviD
Аудио кодек: AC3
Видео: 704x400 (1.76:1), 25 fps, XviD MPEG-4 ~2400 kbps avg, 0.34 bit/pixel
Аудио: Russian: 48 kHz, AC3 Dolby Digital, 3/2 (L,C,R,l,r) + LFE ch, ~448 kbps
Cубтитры: нет-
General
Complete name : F:\Фильмы\Gagarin.Pervyi.V.Kosmose.2013.BDRip.avi
Format : AVI
Format/Info : Audio Video Interleave
Format profile : OpenDML
File size : 2.16 GiB
Duration : 1h 48mn
Overall bit rate : 2 855 Kbps
Writing application : VirtualDubModRus 1.5.10.2 (build 2542/release)
Video
ID : 0
Format : MPEG-4 Visual
Format profile : Advanced [email protected]
Format settings, BVOP : 1
Format settings, QPel : No
Format settings, GMC : No warppoints
Format settings, Matrix : Custom
Codec ID : XVID
Codec ID/Hint : XviD
Duration : 1h 48mn
Bit rate : 2 395 Kbps
Width : 704 pixels
Height : 400 pixels
Display aspect ratio : 16:9
Frame rate : 25.000 fps
Color space : YUV
Chroma subsampling : 4:2:0
Bit depth : 8 bits
Scan type : Progressive
Compression mode : Lossy
Bits/(Pixel*Frame) : 0.340
Stream size : 1.81 GiB (84%)
Writing library : XviD 73
Audio
ID : 1
Format : AC-3
Format/Info : Audio Coding 3
Mode extension : CM (complete main)
Format settings, Endianness : Big
Codec ID : 2000
Duration : 1h 48mn
Bit rate mode : Constant
Bit rate : 448 Kbps
Channel(s) : 6 channels
Channel positions : Front: L C R, Side: L R, LFE
Sampling rate : 48.0 KHz
Bit depth : 16 bits
Compression mode : Lossy
Stream size : 347 MiB (16%)
Alignment : Split accross interleaves
Interleave, duration : 40 ms (1.00 video frame)
Interleave, preload duratio : 500 ms
-Скриншоты:-- -
Download / Скачать

Хотите скачать бесплатно? Зарегистрируйтесь на сайте (ссылка на регистрацию). Pirat.ca - самый быстрый торрент трекер в рунете!

Как скачивать  ·   Что такое торрент  ·   Рейтинг и ограничения

Показать сообщения:    
Ответить на тему

Текущее время: Сегодня 10:00

Часовой пояс: GMT + 4



Вы не можете начинать темы
Вы не можете отвечать на сообщения
Вы не можете редактировать свои сообщения
Вы не можете удалять свои сообщения
Вы не можете голосовать в опросах
Вы не можете прикреплять файлы к сообщениям
Вы не можете скачивать файлы

▼ Вниз