ML
     
  Уважаемый Гость!
Вы можете поддержать проект и зарегистрироваться у наших партнеров - онлайн-стратегия MyLands. При регистрации в игре Вы получите код, который сможете активировать после регистрации на pirat.ca и получить 1000 дублонов.

Ваш код:
2fd4e750dd89cae3a36ea360f2b345ccfeb562d3
 
     

Ёлки 2 (Дмитрий Киселёв, Александр Баранов, Александр Котт) [2011 г., комедия, DVDRip]

Ответить на тему
 
Автор
Сообщение

Пост 24-Янв-2012 05:19

[Q] 

zyyx

--Ёлки 2
«Идём на сближение»
-- Год выпуска: 2011
Мировая премьера: 15 декабря 2011
Российская премьера: 15 декабря 2011, «Bazelevs Distribution»
Дата выхода DVD: 26 января 2012, «Новый Диск»
Дата выхода Blu-Ray: 9 февраля 2012, «Новый Диск»
Страна: Россия
Жанр: комедия
Продолжительность: 01:35:21
Перевод: Не требуется [Лицензия]
Режиссер: Дмитрий Киселёв, Александр Баранов, Александр Котт
В ролях: Сергей Светлаков, Иван Ургант, Вера Брежнева, Сергей Безруков, Владимир Меньшов, Гоша Куценко, Александр Головин, Виктор Вержбицкий
Описание: За этот год много чего произошло, но наступит день, который всё расставит на свои места. Продолжение новогодних историй, которые происходили в жизни героев в фильме «Ёлки».
Источник/Качество: DVDRip | Сэмпл
Формат: AVI
Видео кодек: XviD
Аудио кодек: MP3
Видео: 884 kb/s, 640x352, 25 fps, 0.157 b/px
Аудио: 128 kb/s, 2 канала, 48.0 KHz
General
Complete name : F:\Новая папка\Elki.2.2011.O.DVDRip.700MB.avi
Format : AVI
Format/Info : Audio Video Interleave
File size : 703 MiB
Duration : 1h 36mn
Overall bit rate : 1 022 Kbps
Writing application : VirtualDubMod 1.5.10.3 | www.virtualdub-fr.org || (build 2550/release)
Writing library : VirtualDubMod build 2550/release
Video
ID : 0
Format : MPEG-4 Visual
Format profile : [email protected]
Format settings, BVOP : Yes
Format settings, QPel : No
Format settings, GMC : No warppoints
Format settings, Matrix : Custom
Muxing mode : Packed bitstream
Codec ID : XVID
Codec ID/Hint : XviD
Duration : 1h 36mn
Bit rate : 884 Kbps
Width : 640 pixels
Height : 352 pixels
Display aspect ratio : 16:9
Frame rate : 25.000 fps
Resolution : 24 bits
Colorimetry : 4:2:0
Scan type : Progressive
Bits/(Pixel*Frame) : 0.157
Stream size : 608 MiB (87%)
Writing library : XviD 58
Audio
ID : 1
Format : MPEG Audio
Format version : Version 1
Format profile : Layer 3
Codec ID : 55
Codec ID/Hint : MP3
Duration : 1h 36mn
Bit rate mode : Constant
Bit rate : 128 Kbps
Channel(s) : 2 channels
Sampling rate : 48.0 KHz
Resolution : 16 bits
Stream size : 88.1 MiB (13%)
Alignment : Aligned on interleaves
Interleave, duration : 40 ms (1.00 video frame)
Interleave, preload duration : 504 ms
Writing library : LAME3.98r
Encoding settings : -m s -V 4 -q 7 -lowpass 17 -b 128
Download / Скачать

Хотите скачать бесплатно? Зарегистрируйтесь на сайте (ссылка на регистрацию). Pirat.ca - самый быстрый торрент трекер в рунете!

Как скачивать  ·   Что такое торрент  ·   Рейтинг и ограничения

Пост 24-Янв-2012 11:53 (спустя 6 часов)

Топик был перенесен из форума Наше Кино в форум Новинки (HD|DVD|BD|TV|SAT|PDTV| - Rips)

Skinwalker
 

LETHIK2010

Морской Волк

Пост 24-Янв-2012 14:26 (спустя 9 часов)

[Q] 

Посмотрим.Спасибо.
[Профиль]  [ЛС] 

Doctor-ZLO

Гроза морей

438

Пост 24-Янв-2012 15:59 (спустя 1 час 32 минуты)

[Q] 

скачаю погляжу...

_________________
[Профиль]  [ЛС] 

Strix

Флибустьер

Пост 24-Янв-2012 18:58 (спустя 2 часа 58 минут)

[Q] 

thanks
[Профиль]  [ЛС] 

rul1

Лоцман

Пост 24-Янв-2012 21:25 (спустя 2 часа 27 минут)

[Q] 

фильм просто супер всем качать, автору огромный респект, качество класс... ещё раз ВСЕМ КАЧАТЬ, НЕ ПОЖАЛЕЕТЕ!!!!!!!!!!!!!!!!!!!!!!!!!!!!!!!!!!!!!!!!!!!!!!!
[Профиль]  [ЛС] 

NiKiMayc

Лоцман

Пост 25-Янв-2012 15:09 (спустя 17 часов)

[Q] 

Фильм прикольный. Качество НОРМ !!!
[Профиль]  [ЛС] 

serjio_mosk

Штурман

Пост 25-Янв-2012 18:33 (спустя 3 часа)

[Q] 

Глянем спасибо)))
[Профиль]  [ЛС] 

baltimor337

Корсар

Пост 25-Янв-2012 18:53 (спустя 19 минут)

[Q] 

спасибо :))
[Профиль]  [ЛС] 

Pippo48

Корсар

Пост 25-Янв-2012 20:40 (спустя 1 час 46 минут)

[Q] 

в некоторых моментах пробрало до слез, есть все таки хорошие фильмы и в России, жаль из-за остального УГ такие шедевры пропускают.
[Профиль]  [ЛС] 

Oleksiy85

Шкипер

Пост 25-Янв-2012 22:04 (спустя 1 час 24 минуты)

[Q] 

Прошу вас газу
[Профиль]  [ЛС] 

Раемия

Флибустьер

Пост 26-Янв-2012 15:31 (спустя 17 часов)

[Q] 

Аааа...классный фильм...смотрела ночью...так весь дом перебудила своим диким хохотом...Качайте народ!!!

_________________
Любите кроликов!!!…и они отплатят вам тем же…
[Профиль]  [ЛС] 

ACKTOR

Штурман

Пост 29-Янв-2012 13:08 (спустя 2 дня 21 час)

[Q] 

глянем
[Профиль]  [ЛС] 

MOPRK

Флибустьер

Пост 29-Янв-2012 14:26 (спустя 1 час 18 минут)

[Q] 

большое спасибо за качество
[Профиль]  [ЛС] 

Forestman

Штурман

Пост 30-Янв-2012 01:07 (спустя 10 часов)

[Q] 

думаю,что чушь, но скачаю, для раздачи, может с девушкой глянем)
[Профиль]  [ЛС] 

VDGS

Корсар

Пост 30-Янв-2012 23:01 (спустя 21 час)

[Q] 

спасибо
[Профиль]  [ЛС] 

smertgovno

Морской Волк

Пост 14-Фев-2012 17:50 (спустя 14 дней)

[Q] 

верьте в хорошее и оно обязательно сбудется ))))
[Профиль]  [ЛС] 

gao81

Лоцман

Пост 07-Апр-2012 12:58 (спустя 1 месяц 21 день)

[Q] 

фильм на самом деле хороший
[Профиль]  [ЛС] 

Анна Каштаева

Шкипер

Пост 21-Май-2012 16:06 (спустя 1 месяц 14 дней)

[Q] 

отличный фильм!!
[Профиль]  [ЛС] 

agafonkin.62

Морской Волк

Пост 09-Ноя-2012 18:24 (спустя 5 месяцев 19 дней)

[Q] 

газу
[Профиль]  [ЛС] 

hohol541

Корсар

Пост 29-Дек-2012 10:42 (спустя 1 месяц 19 дней)

[Q] 

Не понял где комедия.Бред.
[Профиль]  [ЛС] 
Показать сообщения:    
Ответить на тему

Текущее время: Сегодня 14:09

Часовой пояс: GMT + 4



Вы не можете начинать темы
Вы не можете отвечать на сообщения
Вы не можете редактировать свои сообщения
Вы не можете удалять свои сообщения
Вы не можете голосовать в опросах
Вы не можете прикреплять файлы к сообщениям
Вы не можете скачивать файлы

▼ Вниз