ML
     
  Уважаемый Гость!
Вы можете поддержать проект и зарегистрироваться у наших партнеров - онлайн-стратегия MyLands. При регистрации в игре Вы получите код, который сможете активировать после регистрации на pirat.ca и получить 1000 дублонов.

Ваш код:
ec3b26eefbcdc72e08e9fd33c6846bb2ca10f8b1
 
     

Личный интерес (Анатолий Григорьев) [2015 г., мелодрама, WEB-DLRip]

Ответить на тему
 
Автор
Сообщение

Пост 15-Апр-2015 12:50

[Q] 

nbdjod

Корсар

-Личный интерес-- Производство: Россия / Star Media
Режиссер: Анатолий Григорьев
Жанр: мелодрама
Год выпуска: 2015 г.
Продолжительность: 01:35:00
Российская премьера: 22 февраля 2015
В ролях: Кирилл Жандаров, Галина Безрук, Алексей Нагрудный-Описание: Татьяна, совершив побег из колонии, поселяется в доме своей покойной бабушки в глухом селе Павловка. Там она встречает Максима, который приехал в деревню, чтобы отдохнуть от городской суеты. Между ними возникает взаимное чувство. Тем временем в Павловке появляется Олег — бывший жених Татьяны.
Таня вынуждена рассказать Максиму всю правду о себе — о том, как она вместе с Олегом совершила ограбление, как взяла всю вину на себя и как сбежала из зоны.
Максим заверяет любимую, что поможет ей и всегда будет рядом. Но не всё так просто: Максим не тот, за кого себя выдаёт…-
Качество видео: WEB-DLRip
Контейнер: AVI
Видео кодек: XviD
Аудио кодек: AC3
Видео: 2 028 Kbps, 720х400, 29.970 fps, 0,235 Bits/(Pixel*Frame)
Аудио: 192 Kbps, 2 channels, 44.1 KHz
Cубтитры: отсутствуют
Код:
General
Format : AVI
Format/Info : Audio Video Interleave
File size : 1.37 GiB
Duration : 1h 27mn
Overall bit rate : 2 232 Kbps
Writing application : VirtualDubMod 1.5.10.3 | www.virtualdub-fr.org || (build 2550/release)
Writing library : VirtualDubMod build 2550/release
Video
ID : 0
Format : MPEG-4 Visual
Format profile : Advanced [email protected]
Format settings, BVOP : Yes
Format settings, QPel : No
Format settings, GMC : No warppoints
Format settings, Matrix : Default (MPEG)
Codec ID : XVID
Codec ID/Hint : XviD
Duration : 1h 27mn
Bit rate : 2 028 Kbps
Width : 720 pixels
Height : 400 pixels
Display aspect ratio : 16:9
Frame rate : 29.970 fps
Resolution : 8 bits
Colorimetry : 4:2:0
Scan type : Progressive
Bits/(Pixel*Frame) : 0.235
Stream size : 1.24 GiB (91%)
Writing library : XviD 1.2.1 (UTC 2008-12-04)
Audio
ID : 1
Format : AC-3
Format/Info : Audio Coding 3
Codec ID : 2000
Duration : 1h 27mn
Bit rate mode : Constant
Bit rate : 192 Kbps
Channel(s) : 2 channels
Channel positions : L R
Sampling rate : 44.1 KHz
Stream size : 120 MiB (9%)
Alignment : Split accross interleaves
Interleave, duration : 33 ms (1.00 video frame)
Interleave, preload duration : 500 ms
Download / Скачать

Хотите скачать бесплатно? Зарегистрируйтесь на сайте (ссылка на регистрацию). Pirat.ca - самый быстрый торрент трекер в рунете!

Как скачивать  ·   Что такое торрент  ·   Рейтинг и ограничения

Пост 15-Апр-2015 17:24 (спустя 4 часа)

Топик был перенесен из форума Наше кино (Трюм) в форум Новинки (HD|DVD|BD| TV|SAT|PDTV| - Rips)
kugesan
 

realyu

Корсар

Пост 16-Апр-2015 00:50 (спустя 11 часов)

[Q] 

Смотреть не буду, но есть личный интерес - ху из Максим? Посмотревшие, отпишитесь под спойлером, плиз.
[Профиль]  [ЛС] 

grosboy

Флибустьер

Пост 16-Апр-2015 20:17 (спустя 19 часов)

[Q] 

Спасибо за труды надо глянуть на досуге.

_________________
Щастье есть - его не может не быть...
[Профиль]  [ЛС] 

sergein

Корсар

Пост 17-Апр-2015 00:34 (спустя 4 часа)

[Q] 

кто то уже поглядел? как оно стоит? а то качаю смысл ждать есть или спать пойти ?
[Профиль]  [ЛС] 

Ahzool

Корсар

Пост 17-Апр-2015 05:29 (спустя 4 часа)

[Q] 

667615 есть личный интерес - ху из Максим?
мусорок, это и так было понятно!))))антагонист и все такое...)

_________________
Si non es occupatus quid natum moriendo occupatus es,beauty creatur vultus.
[Профиль]  [ЛС] 

Vylan

Шкипер

Пост 17-Апр-2015 13:56 (спустя 8 часов)

[Q] 

Как фильм, кто посмотрел? cr
[Профиль]  [ЛС] 

Pugovka13

Лоцман

Пост 17-Апр-2015 18:33 (спустя 4 часа)

[Q] 

я посмотрела. блевотина. bu
[Профиль]  [ЛС] 

Пост 16-Май-2015 10:05 (спустя 28 дней)

Топик был перенесен из форума Новинки (HD|DVD|BD| TV|SAT|PDTV| - Rips) в форум Российские фильмы
aleksey99
 
Показать сообщения:    
Ответить на тему

Текущее время: Сегодня 03:51

Часовой пояс: GMT + 4



Вы не можете начинать темы
Вы не можете отвечать на сообщения
Вы не можете редактировать свои сообщения
Вы не можете удалять свои сообщения
Вы не можете голосовать в опросах
Вы не можете прикреплять файлы к сообщениям
Вы не можете скачивать файлы

▼ Вниз