ML
     
  Уважаемый Гость!
Вы можете поддержать проект и зарегистрироваться у наших партнеров - онлайн-стратегия MyLands. При регистрации в игре Вы получите код, который сможете активировать после регистрации на pirat.ca и получить 1000 дублонов.

Ваш код:
aec9a4a936117fb450ba69e519991a0465404b1d
 
     

Призрак (Александр Войтинский) [2015 г., комедия, семейный, WEB-DLRip] Original (RUS) [iTunes]

Ответить на тему
 
Автор
Сообщение

Пост 17-Апр-2015 07:30

[Q] 

aleksey99

--Призрак-- Производство: Россия, Кинокомпания CTB
Год выпуска: 2015 г.
Жанр: комедия, семейный
Продолжительность: 01:53:44--Премьера (РФ): 26 марта 2015, «Наше Кино»--Режиссер: Александр Войтинский--В ролях: Фёдор Бондарчук, Семен Трескунов, Ян Цапник, Анна Антонова, Игорь Угольников, Ксения Лаврова-Глинка, Софья Райзман, Ани Петросян, Алексей Лукин, Ольга Кузьмина--Описание: Еще вчера Юрий Гордеев — амбициозный авиаконструктор и любимец женщин — был в шаге от своего триумфа. Его самолет ЮГ-1 должен был стать настоящим прорывом в отечественной авиации. Но сегодня его никто не видит и не слышит, и конкурент по бизнесу беспрепятственно закрывает его компанию. Все потому, что Юра разбился в автокатастрофе и стал призраком.
Семиклассник Ваня Кузнецов был пустым местом всегда. Жертва гиперопеки матери, объект насмешек одноклассников, он боится даже заговорить с девочкой, в которую давно влюблен. У Юры есть неделя, чтобы закончить дело своей жизни и поднять самолет в воздух. Ваня — единственный, кто его видит и может ему помочь.-- --Качество видео: WEB-DLRip
Контейнер: AVI
Видео кодек: XviD
Аудио кодек: AC3
Видео: 720x304 (2.37:1), 24 fps, XviD build 50 ~1445 kbps avg, 0.28 bit/pixel
Аудио: 48 kHz, AC3 Dolby Digital, 3/2 (L,C,R,l,r) + LFE ch, ~384 kbps
Cубтитры: отсутствуют
Общее
Полное имя : E:\T2\Prizrak.2015.O.WEB-DLRip.1.46GB.avi
Формат : AVI
Формат/Информация : Audio Video Interleave
Размер файла : 1,46 Гбайт
Продолжительность : 1 ч. 53 м.
Общий поток : 1839 Кбит/сек
Программа кодирования : VirtualDubMod 1.5.10.3 | www.virtualdub-fr.org || (build 2550/release)
Библиотека кодирования : VirtualDubMod build 2550/release
Видео
Идентификатор : 0
Формат : MPEG-4 Visual
Профиль формата : Advanced [email protected]
Параметр BVOP формата : 2
Параметр QPel формата : Нет
Параметр GMC формата : Без точки перехода
Параметр матрицы формата : Default (MPEG)
Идентификатор кодека : XVID
Идентификатор кодека/Подсказка : XviD
Продолжительность : 1 ч. 53 м.
Битрейт : 1446 Кбит/сек
Ширина : 720 пикселей
Высота : 304 пикселя
Соотношение сторон : 2,35:1
Частота кадров : 24,000 кадра/сек
Цветовое пространство : YUV
Субдискретизация насыщенности : 4:2:0
Битовая глубина : 8 бит
Тип развёртки : Прогрессивная
Метод сжатия : С потерями
Бит/(Пиксели*Кадры) : 0.275
Размер потока : 1,15 Гбайт (79%)
Библиотека кодирования : XviD 1.2.1 (UTC 2008-12-04)
Аудио
Идентификатор : 1
Формат : AC-3
Формат/Информация : Audio Coding 3
Расширение режима : CM (complete main)
Параметр Endianness формата : Big
Идентификатор кодека : 2000
Продолжительность : 1 ч. 53 м.
Вид битрейта : Постоянный
Битрейт : 384 Кбит/сек
Каналы : 6 каналов
Расположение каналов : Front: L C R, Side: L R, LFE
Частота : 48,0 КГц
Битовая глубина : 16 бит
Метод сжатия : С потерями
Размер потока : 312 Мбайт (21%)
Выравнивание : Разделение по промежуткам
Продолжительность промежутка : 42 мс. (1,00 видеокадр)
Время предзагрузки промежутка : 500 мс.
Трейлер
Download / Скачать

Хотите скачать бесплатно? Зарегистрируйтесь на сайте (ссылка на регистрацию). Pirat.ca - самый быстрый торрент трекер в рунете!

Как скачивать  ·   Что такое торрент  ·   Рейтинг и ограничения

cruzzel

Корсар

Пост 17-Апр-2015 09:08 (спустя 1 час 38 минут)

[Q] 

посмотрим, чего там наши наснимали. Лови бочку

_________________
NEWSLOL.NET
[Профиль]  [ЛС] 

Maks_e

Корсар

69

Пост 17-Апр-2015 10:35 (спустя 1 час 26 минут)

[Q] 

Спасибо!!! Супер!
[Профиль]  [ЛС] 

OlegFox68

Шкипер

Пост 17-Апр-2015 12:28 (спустя 1 час 53 минуты)

[Q] 

фигню они опять сняли Не качайте!
[Профиль]  [ЛС] 

Vylan

Шкипер

Пост 17-Апр-2015 13:51 (спустя 1 час 23 минуты)

[Q] 

Хорошая семейная комедия Спасибо!!! Автору респект!!!
[Профиль]  [ЛС] 

Jek@

Легенда

Пост 17-Апр-2015 16:25 (спустя 2 часа 33 минуты)

[Q] 

Спасибо!!! .
[Профиль]  [ЛС] 

Дрей

Штурман

Пост 17-Апр-2015 17:17 (спустя 52 минуты)

[Q] 

Спасибо!!! Спасибо!!! посмотрим
[Профиль]  [ЛС] 

polozm

Легенда

Пост 17-Апр-2015 18:22 (спустя 1 час 4 минуты)

[Q] 

Спасибо!понравилось кино,не супер ,но посмотреть приятно и весело az

_________________
mac mini -2.0 GHz Intel Core i7/ 8 GB DDR3. /Intel HD 3000(512mb)OS X 10.9 Mavericks
[Профиль]  [ЛС] 

skula

Шкипер

Пост 17-Апр-2015 20:25 (спустя 2 часа 3 минуты)

[Q] 

Очень достойный кинчик! Мои рекомендации!!! Не слушайте плохие отзывы!!!
[Профиль]  [ЛС] 

sergein

Корсар

Пост 17-Апр-2015 21:14 (спустя 48 минут)

[Q] 

ну мнения неоднозначные стоит самому оценить сей так сказать шедевр
[Профиль]  [ЛС] 

ТАЛИ

Корсар

Пост 18-Апр-2015 09:41 (спустя 12 часов)

[Q] 

Очень качественная семейная комедия. Наверно с советских времен ничего в подобном роде не снимали. А тут еще и спецэффекты, за которые не стыдно. Всем смотреть!
Автору респект!!!
[Профиль]  [ЛС] 

grosboy

Флибустьер

Пост 18-Апр-2015 19:41 (спустя 10 часов)

[Q] 

Отличный фильм! Всем качать!!!

_________________
Щастье есть - его не может не быть...
[Профиль]  [ЛС] 

sektorram

Морской Волк

Пост 18-Апр-2015 22:28 (спустя 2 часа 46 минут)

[Q] 

С Автору респект!!! пасибо за позитивные отзывы ребята! Забираю!
[Профиль]  [ЛС] 

Bos_Man

Штурман

Пост 19-Апр-2015 17:37 (спустя 19 часов)

[Q] 

Отличный фильмец. Можно с семьей посмотреть вечерком
[Профиль]  [ЛС] 

Клайд

Морской Волк

Пост 19-Апр-2015 21:47 (спустя 4 часа)

[Q] 

Средний фильм , на любителя. но Спасибо!!! Автору респект!!!
[Профиль]  [ЛС] 

KoNiaL_KCC

Гроза морей

Пост 20-Апр-2015 13:29 (спустя 15 часов)

[Q] 

посмотрим, оценим. Автору респект!!!
[Профиль]  [ЛС] 

Мишки

Морской Волк

Пост 20-Апр-2015 16:38 (спустя 3 часа)

[Q] 

Не супер - пупер, но и не дно. Вполне.

_________________
Это всего лишь игра, настройся на волну позитива!:)
[Профиль]  [ЛС] 

Showman

Корсар

Пост 22-Апр-2015 21:10 (спустя 2 дня 4 часа)

[Q] 

Не так плохо, как ожидал. Смотреть можно Автору респект!!! Лови бочку
[Профиль]  [ЛС] 

Antares_2910

Шкипер

Пост 22-Апр-2015 21:20 (спустя 9 минут)

[Q] 

Спасибо. Автору респект!!!
[Профиль]  [ЛС] 

Сергей_Сергей

Корсар

Пост 22-Апр-2015 23:42 (спустя 2 часа 22 минуты)

[Q] 

Хороший фильм кстати. Рекомендую! Мне понравилось
[Профиль]  [ЛС] 

kudrjavy

Флибустьер

Пост 18-Май-2015 11:44 (спустя 25 дней)

[Q] 

Одноразовая сопля)) Лови бочку

_________________
Девушки-как печеньки: ломаются,пока не намокнут...
[Профиль]  [ЛС] 

Пост 19-Май-2015 08:25 (спустя 20 часов)

Топик был перенесен из форума Новинки (HD|DVD|BD| TV|SAT|PDTV| - Rips) в форум Российские фильмы
aleksey99
 

Sakoru

Корсар

Пост 20-Июл-2015 21:26 (спустя 2 месяца 2 дня)

[Q] 

Хоть и росскийский, но посмотреть можно.

_________________
[Профиль]  [ЛС] 
Показать сообщения:    
Ответить на тему

Текущее время: Сегодня 02:23

Часовой пояс: GMT + 4



Вы не можете начинать темы
Вы не можете отвечать на сообщения
Вы не можете редактировать свои сообщения
Вы не можете удалять свои сообщения
Вы не можете голосовать в опросах
Вы не можете прикреплять файлы к сообщениям
Вы не можете скачивать файлы

▼ Вниз