ML
     
  Уважаемый Гость!
Вы можете поддержать проект и зарегистрироваться у наших партнеров - онлайн-стратегия MyLands. При регистрации в игре Вы получите код, который сможете активировать после регистрации на pirat.ca и получить 1000 дублонов.

Ваш код:
aec9a4a936117fb450ba69e519991a0465404b1d
 
     

Духless 2 (Роман Прыгунов) [2015 г., драма, HDRip] (Лицензия)

Ответить на тему
 
Автор
Сообщение

Пост 18-Апр-2015 20:42

[Q] 

LPPI

-Духless 2- Производство: Россия
Год выпуска: 2015 г.
Жанр: драма
Продолжительность: 01:51:31
Мировая премьера: 5 марта 2015
Российская премьера: 5 марта 2015, «UPI»-Перевод: Не требуется [Лицензия]-Режиссер: Роман Прыгунов
В ролях: Данила Козловский, Мария Андреева, Милош Бикович, Павел Ворожцов, Сергей Бурунов, Владимир Симонов, Доминик Пинон, Александра Бортич, Яна Набокова, Анна Александрова, Лев Прыгунов-Описание: Он отказался от всего, что так когда-то ценил — светской жизни, успешной карьеры, роскошного пентхауса. Теперь его стихия — океан. Каждый день он рассекает на серфе теплые волны, омывающие остров Бали. Но невозможно забыть ритм большого города. Случайное знакомство возвращает его в самое сердце современной столицы — высокие технологии, сумасшедшие сделки, смертельный риск и прежняя любовь, которая больше не с ним.- -Качество видео: HDRip
Контейнер: AVI
Видео кодек: XviD
Аудио кодек: AC3
Видео: 720x304 (2.37:1), 24 fps, XviD build 50 ~1412 kbps avg, 0.27 bit/pixel
Аудио: Russian: 48 kHz, AC3 Dolby Digital, 3/2 (L,C,R,l,r) + LFE ch, ~448 kbps
Cубтитры: нет-
General
Complete name : F:\Фильмы\duxLeCCnik.2.2015.O.HDRip.avi
Format : AVI
Format/Info : Audio Video Interleave
File size : 1.46 GiB
Duration : 1h 51mn
Overall bit rate : 1 870 Kbps
Writing application : VirtualDubMod 1.5.10.2 (build 2540/release)
Writing library : VirtualDubMod build 2540/release
Video
ID : 0
Format : MPEG-4 Visual
Format profile : Advanced [email protected]
Format settings, BVOP : 2
Format settings, QPel : No
Format settings, GMC : No warppoints
Format settings, Matrix : Default (MPEG)
Codec ID : XVID
Codec ID/Hint : XviD
Duration : 1h 51mn
Bit rate : 1 413 Kbps
Width : 720 pixels
Height : 304 pixels
Display aspect ratio : 2.35:1
Frame rate : 24.000 fps
Color space : YUV
Chroma subsampling : 4:2:0
Bit depth : 8 bits
Scan type : Progressive
Compression mode : Lossy
Bits/(Pixel*Frame) : 0.269
Stream size : 1.10 GiB (76%)
Writing library : XviD 1.2.1 (UTC 2008-12-04)
Audio
ID : 1
Format : AC-3
Format/Info : Audio Coding 3
Mode extension : CM (complete main)
Format settings, Endianness : Big
Codec ID : 2000
Duration : 1h 51mn
Bit rate mode : Constant
Bit rate : 448 Kbps
Channel(s) : 6 channels
Channel positions : Front: L C R, Side: L R, LFE
Sampling rate : 48.0 KHz
Compression mode : Lossy
Stream size : 357 MiB (24%)
Alignment : Split accross interleaves
Interleave, duration : 42 ms (1.00 video frame)
Interleave, preload duratio : 500 ms
-Скриншоты:-- -
Download / Скачать

Хотите скачать бесплатно? Зарегистрируйтесь на сайте (ссылка на регистрацию). Pirat.ca - самый быстрый торрент трекер в рунете!

Как скачивать  ·   Что такое торрент  ·   Рейтинг и ограничения

dogovor

Морской Волк

Пост 18-Апр-2015 20:56 (спустя 14 минут)

[Q] 

А, это тот самый козлячий духлес...
[Профиль]  [ЛС] 

kudrjavy

Флибустьер

Пост 18-Май-2015 11:46 (спустя 29 дней)

[Q] 

Про полонского фильмец...не находите?))) Лови бочку

_________________
Девушки-как печеньки: ломаются,пока не намокнут...
[Профиль]  [ЛС] 

Пост 19-Май-2015 08:27 (спустя 20 часов)

Топик был перенесен из форума Новинки (HD|DVD|BD| TV|SAT|PDTV| - Rips) в форум Российские фильмы
aleksey99
 

msss

Морской Волк

Пост 25-Окт-2015 18:45 (спустя 5 месяцев 7 дней)

[Q] 

Духлес2 оправдал ожидания, смотреть можно 7/10
[Профиль]  [ЛС] 

platon18

Гроза морей

Пост 04-Ноя-2015 09:48 (спустя 9 дней)

[Q] 

не, максимум 3/10
[Профиль]  [ЛС] 

Angel_XP

Морской Волк

Пост 05-Ноя-2015 16:25 (спустя 1 день 6 часов)

[Q] 

согласен что 7/10 это многовато)) но смотреть можно Пиратка рулез!!!
[Профиль]  [ЛС] 
Показать сообщения:    
Ответить на тему

Текущее время: Сегодня 02:25

Часовой пояс: GMT + 4



Вы не можете начинать темы
Вы не можете отвечать на сообщения
Вы не можете редактировать свои сообщения
Вы не можете удалять свои сообщения
Вы не можете голосовать в опросах
Вы не можете прикреплять файлы к сообщениям
Вы не можете скачивать файлы

▼ Вниз