ML
     
  Уважаемый Гость!
Вы можете поддержать проект и зарегистрироваться у наших партнеров - онлайн-стратегия MyLands. При регистрации в игре Вы получите код, который сможете активировать после регистрации на pirat.ca и получить 1000 дублонов.

Ваш код:
ef8b3e8cd07bec918273586d22e5aaf18e0ae925
 
     

Домик в сердце (Грач Кешишян) [2014 г., мелодрама, комедия, семейный, WEBRip]

Ответить на тему
 
Автор
Сообщение

Пост 22-Апр-2015 21:31

[Q] 

LPPI

-Домик в сердце- Производство: Россия, Армения
Год выпуска: 2014 г.
Жанр: мелодрама, комедия, семейный
Продолжительность: 01:29:00
Мировая премьера: 4 сентября 2014
Российская премьера: 12 февраля 2015, «Арена», «All Media»-Перевод: Не требуется-Режиссер: Грач Кешишян
В ролях: Мария Сёмкина, Хорен Левонян, Армен Джигарханян, Екатерина Стриженова, Александр Хачатрян, Джулия Погосова, Сергей Погосов, Эмилия Погосова, Ян Цапник, Олег Шкловский-Описание: Катя — молодая бизнес-вумен, которой никогда не хватает времени на личную жизнь. Умирая, отец оставляет ей в наследство свою компанию с условием, что она ее получит, лишь когда обзаведется мужем и тремя детьми. По иронии судьбы водитель Кати Артур, и по совместительству отец-одиночка троих детей, остро нуждается в деньгах, чтобы закрыть свои долги. Как им обоим выбраться из своих непростых ситуаций? Решение приходит неожиданно: надо просто вступить в брак по расчету. Но традиции все равно нужно соблюдать, и парочке предстоит увлекательное путешествие на родину Артура — Армению, чтобы как следует познакомиться с его многочисленной родней.- -Качество видео: WEBRip
Контейнер: AVI
Видео кодек: XviD
Аудио кодек: AC3
Видео: 720x352 (2.05:1), 25 fps, XviD build 50 ~1794 kbps avg, 0.28 bit/pixel
Аудио: Russian: 44.1 kHz, AC3 Dolby Digital, 2/0 (L,R) ch, ~384 kbps
Cубтитры: нет-
General
Complete name : F:\D0mik.V.Serdce.2014.O.WEBRip.1400MB.avi
Format : AVI
Format/Info : Audio Video Interleave
File size : 1.37 GiB
Duration : 1h 29mn
Overall bit rate : 2 189 Kbps
Writing application : VirtualDubMod 1.5.10.3 | www.virtualdub-fr.org || (build 2550/release)
Writing library : VirtualDubMod build 2550/release
Video
ID : 0
Format : MPEG-4 Visual
Format profile : Advanced [email protected]
Format settings, BVOP : 2
Format settings, QPel : No
Format settings, GMC : No warppoints
Format settings, Matrix : Default (MPEG)
Codec ID : XVID
Codec ID/Hint : XviD
Duration : 1h 29mn
Bit rate : 1 795 Kbps
Width : 720 pixels
Height : 352 pixels
Display aspect ratio : 2.045
Frame rate : 25.000 fps
Color space : YUV
Chroma subsampling : 4:2:0
Bit depth : 8 bits
Scan type : Progressive
Compression mode : Lossy
Bits/(Pixel*Frame) : 0.283
Stream size : 1.12 GiB (82%)
Writing library : XviD 1.2.1 (UTC 2008-12-04)
Audio
ID : 1
Format : AC-3
Format/Info : Audio Coding 3
Mode extension : CM (complete main)
Format settings, Endianness : Big
Codec ID : 2000
Duration : 1h 29mn
Bit rate mode : Constant
Bit rate : 384 Kbps
Channel(s) : 2 channels
Channel positions : Front: L R
Sampling rate : 44.1 KHz
Compression mode : Lossy
Stream size : 246 MiB (18%)
Alignment : Split accross interleaves
Interleave, duration : 40 ms (1.00 video frame)
Interleave, preload duratio : 500 ms
-Скриншоты:-- -
Download / Скачать

Хотите скачать бесплатно? Зарегистрируйтесь на сайте (ссылка на регистрацию). Pirat.ca - самый быстрый торрент трекер в рунете!

Как скачивать  ·   Что такое торрент  ·   Рейтинг и ограничения

DocSoft

Гроза морей

71

Пост 22-Апр-2015 23:22 (спустя 1 час 51 минута)

[Q] 

Спасибо ! Ну так себе на любителя !!!

_________________
Всего одна Любовь !
[Профиль]  [ЛС] 

ss80

Флибустьер

36

Пост 22-Апр-2015 23:41 (спустя 18 минут)

[Q] 

Спасибо!!!
[Профиль]  [ЛС] 

Pardon

Мичман

Пост 23-Апр-2015 11:54 (спустя 12 часов)

[Q] 

какой неожиданный и даже уникальный сюжет
[Профиль]  [ЛС] 

kucha11

Корсар

Пост 23-Апр-2015 22:05 (спустя 10 часов)

[Q] 

Спасибо!!!
[Профиль]  [ЛС] 

ellilight

Штурман

Пост 23-Апр-2015 22:53 (спустя 47 минут)

[Q] 

унылый фильм....
[Профиль]  [ЛС] 

ТАЛИ

Корсар

Пост 25-Апр-2015 23:24 (спустя 2 дня)

[Q] 

Фильм, конечно, незамысловатый, с избитым сюжетом, но достаточно милый, актеры приятные. На разок посмотреть можно.
Спасибо!!!
[Профиль]  [ЛС] 

Пост 25-Май-2015 08:50 (спустя 29 дней)

Топик был перенесен из форума Новинки (HD|DVD|BD| TV|SAT|PDTV| - Rips) в форум Российские фильмы
aleksey99
 

Scorpion7474

Флибустьер

Пост 02-Авг-2015 21:04 (спустя 3 месяца 6 дней)

[Q] 

На любителя
[Профиль]  [ЛС] 
Показать сообщения:    
Ответить на тему

Текущее время: Сегодня 18:39

Часовой пояс: GMT + 4



Вы не можете начинать темы
Вы не можете отвечать на сообщения
Вы не можете редактировать свои сообщения
Вы не можете удалять свои сообщения
Вы не можете голосовать в опросах
Вы не можете прикреплять файлы к сообщениям
Вы не можете скачивать файлы

▼ Вниз