ML
     
  Уважаемый Гость!
Вы можете поддержать проект и зарегистрироваться у наших партнеров - онлайн-стратегия MyLands. При регистрации в игре Вы получите код, который сможете активировать после регистрации на pirat.ca и получить 1000 дублонов.

Ваш код:
21acd5966619d49ad0b90c3305467b4646cc11a8
 
     

Раскоп (Сергей Дахин) [2014 г., драма, комедия, WEBRip] Original (RUS)

Ответить на тему
 
Автор
Сообщение

Пост 23-Апр-2015 08:13

[Q] 

aleksey99

--Раскоп--«Дружба - не дружба... Любовь - не любовь...»-- Производство: Россия
Год выпуска: 2014 г.
Жанр: драма, комедия
Продолжительность: 01:23:24--Премьера (РФ): 22 января 2015, «Любители»--Режиссер: Сергей Дахин--В ролях: Кирилл Пирогов, Олег Нирян, Екатерина Федулова, Никита Тюнин, Владас Багдонас, Александр Петров, Ксения Богданова, Наталия Денисенко, Александр Безсмертный--Описание: Писатель-неудачник Паша и двое его школьных друзей — алкоголик-бизнесмен Самородов и примерный семьянин Скляренко, заскучав от повседневной суеты, жён и рутины, решают отправиться в отпуск навстречу приключениям. Волею судьбы сорокалетние мальчишки оказываются на археологическом раскопе. Получив возможность столкнуться со своим прошлым, Паша, освободившись от иллюзий, комплексов и страхов, наконец, обретает внутреннюю гармонию…-- --Качество видео: WEBRip
Контейнер: AVI
Видео кодек: XviD
Аудио кодек: AC3
Видео: 704x288 (2.44:1), 24 fps, XviD build 50 ~1948 kbps avg, 0.40 bit/pixel
Аудио: 44.1 kHz, AC3 Dolby Digital, 2/0 (L,R) ch, ~384 kbps
Cубтитры: отсутствуют
Общее
Полное имя : D:\Раскоп.2014.O.WEBRip.avi
Формат : AVI
Формат/Информация : Audio Video Interleave
Размер файла : 1,36 Гбайт
Продолжительность : 1 ч. 23 м.
Общий поток : 2342 Кбит/сек
Программа кодирования : VirtualDubMod 1.5.10.3 | www.virtualdub-fr.org || (build 2550/release)
Библиотека кодирования : VirtualDubMod build 2550/release
Видео
Идентификатор : 0
Формат : MPEG-4 Visual
Профиль формата : Advanced [email protected]
Параметр BVOP формата : 2
Параметр QPel формата : Нет
Параметр GMC формата : Без точки перехода
Параметр матрицы формата : Default (MPEG)
Идентификатор кодека : XVID
Идентификатор кодека/Подсказка : XviD
Продолжительность : 1 ч. 23 м.
Битрейт : 1949 Кбит/сек
Ширина : 704 пикселя
Высота : 288 пикселей
Соотношение сторон : 2,40:1
Частота кадров : 24,000 кадра/сек
Цветовое пространство : YUV
Субдискретизация насыщенности : 4:2:0
Битовая глубина : 8 бит
Тип развёртки : Прогрессивная
Метод сжатия : С потерями
Бит/(Пиксели*Кадры) : 0.401
Размер потока : 1,14 Гбайт (83%)
Библиотека кодирования : XviD 1.2.1 (UTC 2008-12-04)
Аудио
Идентификатор : 1
Формат : AC-3
Формат/Информация : Audio Coding 3
Расширение режима : CM (complete main)
Параметр Endianness формата : Big
Идентификатор кодека : 2000
Продолжительность : 1 ч. 23 м.
Вид битрейта : Постоянный
Битрейт : 384 Кбит/сек
Каналы : 2 канала
Расположение каналов : Front: L R
Частота : 44,1 КГц
Битовая глубина : 16 бит
Метод сжатия : С потерями
Размер потока : 229 Мбайт (16%)
Выравнивание : Разделение по промежуткам
Продолжительность промежутка : 42 мс. (1,00 видеокадр)
Время предзагрузки промежутка : 500 мс.
Трейлер
Download / Скачать

Хотите скачать бесплатно? Зарегистрируйтесь на сайте (ссылка на регистрацию). Pirat.ca - самый быстрый торрент трекер в рунете!

Как скачивать  ·   Что такое торрент  ·   Рейтинг и ограничения

UncleGB

Корсар

Пост 23-Апр-2015 12:37 (спустя 4 часа)

[Q] 

Поделитесь отзывами, кто посмотрел.
[Профиль]  [ЛС] 

Skala973

Корсар

Пост 23-Апр-2015 17:46 (спустя 5 часов)

[Q] 

Поддерживаю. Уже столько народа скачало, и никто не высказал своё мнение по фильму.
То что раздача хорошая, это очевидно. А вот как сам фильм?
[Профиль]  [ЛС] 

Hausser

Гроза морей

Пост 25-Апр-2015 20:39 (спустя 2 дня 2 часа)

[Q] 

Судя по трейлеру, очередной говновысер
[Профиль]  [ЛС] 

ТАЛИ

Корсар

Пост 06-Май-2015 16:32 (спустя 10 дней)

[Q] 

Очень плохое качество, все темно. И как-то, после минут 20 просмотра, особого желания ждать в качестве не возникло ...
[Профиль]  [ЛС] 

logr

Морской Волк

151

Пост 07-Май-2015 02:27 (спустя 9 часов)

[Q] 

Меня всегда удивляло то, что (или кто) сподвигает режиссёров снимать такие фильмы.
[Профиль]  [ЛС] 

Пост 25-Май-2015 08:48 (спустя 18 дней)

Топик был перенесен из форума Новинки (HD|DVD|BD| TV|SAT|PDTV| - Rips) в форум Российские фильмы
aleksey99
 

woger68

Корсар

Пост 20-Окт-2015 00:37 (спустя 5 месяцев 12 дней)

[Q] 

Скачал!Начал смотреть!Удалил!
СНУ На любителя
[Профиль]  [ЛС] 

platon18

Гроза морей

Пост 21-Окт-2015 09:22 (спустя 1 день 8 часов)

[Q] 

описание фильма- отстойный трешак Отказать
[Профиль]  [ЛС] 
Показать сообщения:    
Ответить на тему

Текущее время: Сегодня 23:20

Часовой пояс: GMT + 4



Вы не можете начинать темы
Вы не можете отвечать на сообщения
Вы не можете редактировать свои сообщения
Вы не можете удалять свои сообщения
Вы не можете голосовать в опросах
Вы не можете прикреплять файлы к сообщениям
Вы не можете скачивать файлы

▼ Вниз