ML
     
  Уважаемый Гость!
Вы можете поддержать проект и зарегистрироваться у наших партнеров - онлайн-стратегия MyLands. При регистрации в игре Вы получите код, который сможете активировать после регистрации на pirat.ca и получить 1000 дублонов.

Ваш код:
2a3da67fd641d69eeebb7cb965232435a70eaa24
 
     

О чём ЕЩЁ говорят мужчины (Дмитрий Дьяченко) [2011 г., комедия, DVDRip][ЛицензиЯ]

Ответить на тему
 
Автор
Сообщение

Пост 24-Янв-2012 19:12

[Q] 

ev5

Морской Волк

О чём ЕЩЁ говорят мужчины Год выпуска: 2011
Мировая премьера: 29 декабря 2011
Российская премьера: 29 декабря 2011
Дата выхода DVD: 26 января 2012
Дата выхода Blu-Ray: 26 января 2012
Производство: Россия
Жанр: комедия
Продолжительность: 01:35:16
Перевод: Не требуется [ЛицензиЯ]
Режиссер: Дмитрий Дьяченко
В ролях
Леонид Барац, Ростислав Хаит, Александр Демидов, Камиль Ларин, Алёна Бабенко, Екатерина Вилкова, Владимир Меньшов, Максим Виторган, Елена Подкаминская, Константин Чепурин
Описание
Действие фильма происходит в Москве, 31 декабря, в офисе рекламного агентства, которым руководит Саша Демидов, и в квартире Камиля.
СэмпЛ, ,
Источник/Качество: DVDRip
Формат: AVI
Видео кодек: XviD
Аудио кодек: MPEG Audio
Видео: 688x288 (2.39:1), 25 fps, XviD build 64 ~902 kbps avg, 0.18 bit/pixel
Аудио: 48 kHz, MPEG Layer 3, 2 ch, ~128.00 kbps avg
D:\О чём ещё говорят мужчины.avi
General
Complete name : D:\О чём ещё говорят мужчины.avi
Format : AVI
Format/Info : Audio Video Interleave
File size : 703 MiB
Duration : 1h 34mn
Overall bit rate : 1 040 Kbps
Writing application : VirtualDubMod 1.5.10.3 | www.virtualdub-fr.org || (build 2550/release)
Writing library : VirtualDubMod build 2550/release
Video #0
ID : 0
Format : MPEG-4 Visual
Format profile : Advanced [email protected]
Format settings, BVOP : 1
Format settings, QPel : No
Format settings, GMC : No warppoints
Format settings, Matrix : Default (MPEG)
Codec ID : XVID
Codec ID/Hint : XviD
Duration : 1h 34mn
Bit rate : 903 Kbps
Width : 688 pixels
Height : 288 pixels
Display aspect ratio : 2.40:1
Frame rate : 25.000 fps
Color space : YUV
Chroma subsampling : 4:2:0
Bit depth : 8 bits
Scan type : Progressive
Compression mode : Lossy
Bits/(Pixel*Frame) : 0.182
Stream size : 610 MiB (87%)
Writing library : XviD 64
Audio #1
ID : 1
Format : MPEG Audio
Format version : Version 1
Format profile : Layer 3
Codec ID : 55
Codec ID/Hint : MP3
Duration : 1h 34mn
Bit rate mode : Constant
Bit rate : 128 Kbps
Channel(s) : 2 channels
Sampling rate : 48.0 KHz
Compression mode : Lossy
Stream size : 86.5 MiB (12%)
Alignment : Aligned on interleaves
Interleave, duration : 40 ms (1.00 video frame)
Interleave, preload duration : 504 ms
Writing library : LAME3.99.1
Download / Скачать

Хотите скачать бесплатно? Зарегистрируйтесь на сайте (ссылка на регистрацию). Pirat.ca - самый быстрый торрент трекер в рунете!

Как скачивать  ·   Что такое торрент  ·   Рейтинг и ограничения



Последний раз редактировалось: ev5 (2012-01-24 20:13), всего редактировалось 3 раз(а)

Пост 24-Янв-2012 20:33 (спустя 1 час 20 минут)

Топик был перенесен из форума Наше Кино в форум Новинки (HD|DVD|BD|TV|SAT|PDTV| - Rips)

goxakrauter
 

bruder

Флибустьер

Пост 24-Янв-2012 20:58 (спустя 1 час 45 минут)

[Q] 

Спасибо, дружище! Первый фильм понравился, надеюсь и этот не разочарует...

_________________
[Профиль]  [ЛС] 

Processor

Корсар

68

Пост 24-Янв-2012 21:07 (спустя 9 минут)

[Q] 

Этот тоже клевый. Только не следует его смотреть со своей любимой! Иначе разговоров на неделю хватит. ))) Об изменах, обманах и т.п. Слишком уж они (девушки) воспринимают этот фильм как "руководство по эксплуатации" )))
[Профиль]  [ЛС] 

leonid.

Флибустьер

Пост 24-Янв-2012 21:47 (спустя 39 минут)

[Q] 

Будем поглядеть!
[Профиль]  [ЛС] 

bruder

Флибустьер

Пост 25-Янв-2012 20:18 (спустя 22 часа)

[Q] 

Processor,
Спасибо, что предупредил!

_________________
[Профиль]  [ЛС] 

Mistar

Морской Волк

1

Пост 25-Янв-2012 20:22 (спустя 3 минуты)

[Q] 

Спасибо, посмотрим продолжение)
[Профиль]  [ЛС] 

dadec39

Корсар

Пост 25-Янв-2012 20:32 (спустя 10 минут)

[Q] 

Первый будет лучше , в этом перебор мужской философии,драмы и т.п.
Ну и запоминающихся фраз намного меньше , чем в первой.
В целом фильм понравился.
[Профиль]  [ЛС] 

italiano711

Гроза морей

Пост 25-Янв-2012 21:50 (спустя 1 час 17 минут)

[Q] 

Ждал я этот фильм, теперь будем посмотреть!
[Профиль]  [ЛС] 

Addmin7

Лоцман

Пост 25-Янв-2012 22:13 (спустя 23 минуты)

[Q] 

Спасибо
[Профиль]  [ЛС] 

Mistar

Морской Волк

1

Пост 25-Янв-2012 23:16 (спустя 1 час 3 минуты)

[Q] 

Отличный фильм! Посмеялся от души)
[Профиль]  [ЛС] 

ruman80

Лоцман

Пост 26-Янв-2012 00:05 (спустя 48 минут)

[Q] 

Спасибо!!!!
[Профиль]  [ЛС] 

ACKTOR

Штурман

Пост 29-Янв-2012 13:31 (спустя 3 дня)

[Q] 

спасибо!!
[Профиль]  [ЛС] 

bruder

Флибустьер

Пост 29-Янв-2012 23:26 (спустя 9 часов)

[Q] 

Нормальный фильм, можно поржать.

_________________
[Профиль]  [ЛС] 

ALES_LVOV

Морской Волк

Пост 01-Фев-2012 16:29 (спустя 2 дня 17 часов)

[Q] 

СПАСИБО !!!
[Профиль]  [ЛС] 

smertgovno

Морской Волк

Пост 14-Фев-2012 17:45 (спустя 13 дней)

[Q] 

хорош токо как то муторно
[Профиль]  [ЛС] 

Hausser

Гроза морей

Пост 10-Мар-2012 17:21 (спустя 24 дня)

[Q] 

ИМХО в сравнении с первой частью - редкостная муть.
[Профиль]  [ЛС] 

Sergi4

Гроза морей

Пост 15-Мар-2012 12:05 (спустя 4 дня)

[Q] 

Спасибо
[Профиль]  [ЛС] 
Показать сообщения:    
Ответить на тему

Текущее время: Сегодня 01:12

Часовой пояс: GMT + 4



Вы не можете начинать темы
Вы не можете отвечать на сообщения
Вы не можете редактировать свои сообщения
Вы не можете удалять свои сообщения
Вы не можете голосовать в опросах
Вы не можете прикреплять файлы к сообщениям
Вы не можете скачивать файлы

▼ Вниз