ML
     
  Уважаемый Гость!
Вы можете поддержать проект и зарегистрироваться у наших партнеров - онлайн-стратегия MyLands. При регистрации в игре Вы получите код, который сможете активировать после регистрации на pirat.ca и получить 1000 дублонов.

Ваш код:
2fd4e750dd89cae3a36ea360f2b345ccfeb562d3
 
     

Белая белая ночь (Рамиль Салахутдинов) [2014 г., драма, WEB-DLRip]

Ответить на тему
 
Автор
Сообщение

Пост 25-Апр-2015 21:51

[Q] 

Lion15

Корсар

-Белая белая ночь-- Производство: Россия / Кинокомпания «Север»
Режиссер: Рамиль Салахутдинов
Жанр: драма
Год выпуска: 2014 г.
Продолжительность: 02:02:15
В ролях: Ирина Обрезкова, Артем Цыпин, Сергей Барковский, Оксана Базилевич, Алла Еминцева, Дмитрий Гульнев, Петр Касатьев, Владимир Марьянов, Светлана Обидина, Юрий Орлов
-
Описание: Молодой парень приезжает в Петербург на концерт и пропадает. На его поиски из Москвы отправляется частный детектив Игорь. В ходе расследования он встречается с разными людьми, перед ним возникает современная гнетущая атмосфера города, в котором он сам жил много лет назад. В результате Игорь узнает, что пропавший парень случайно оказался втянутым в криминальную историю, связанную с современной застройкой исторического центра Петербурга. Он находит парня в больнице избитым, в состоянии комы и обнаруживает, что избившие его люди по-прежнему охотятся на него. Подвергая себя серьезной опасности, Игорь берет парня под свою защиту, и это дает ему почувствовать свою востребованность.-Сэмпл КиноПоиск
Качество видео: WEB-DLRip
Контейнер: AVI
Видео кодек: XviD
Аудио кодек: AC3
Видео: 720x384 (1.88:1), 24.000 fps, XviD build 50 ~1317 kbps avg, 0.20 bit/pixel
Аудио: 48 kHz, AC3 Dolby Digital, 3/2 (L,C,R,l,r) + LFE ch, ~384 kbps
Cубтитры: отсутствуют
Общее
Полное имя : W:\Belaya.belaya.no4j.2014.O.WEBDLRip.1.46GB.avi
Формат : AVI
Формат/Информация : Audio Video Interleave
Размер файла : 1,46 Гбайт
Продолжительность : 2 ч. 2 м.
Общий поток : 1711 Кбит/сек
Программа кодирования : VirtualDubMod 1.5.10.3 | www.virtualdub-fr.org || (build 2550/release)
Библиотека кодирования : VirtualDubMod build 2550/release
Видео
Идентификатор : 0
Формат : MPEG-4 Visual
Профиль формата : Advanced [email protected]
Параметр BVOP формата : 2
Параметр QPel формата : Нет
Параметр GMC формата : Без точки перехода
Параметр матрицы формата : Default (MPEG)
Идентификатор кодека : XVID
Идентификатор кодека/Подсказка : XviD
Продолжительность : 2 ч. 2 м.
Битрейт : 1318 Кбит/сек
Ширина : 720 пикс.
Высота : 384 пикс.
Соотношение сторон : 1,875
Частота кадров : 24,000 кадр/сек
Цветовое пространство : YUV
Подвыборка цветности : 4:2:0
Битовая глубина : 8 бит
Тип развёртки : Прогрессивная
Метод сжатия : С потерями
Бит/(Пиксели*Кадры) : 0.199
Размер потока : 1,13 Гбайт (77%)
Библиотека кодирования : XviD 1.2.1 (UTC 2008-12-04)
Аудио
Идентификатор : 1
Формат : AC-3
Формат/Информация : Audio Coding 3
Расширение режима : CM (complete main)
Идентификатор кодека : 2000
Продолжительность : 2 ч. 2 м.
Вид битрейта : Постоянный
Битрейт : 384 Кбит/сек
Канал(ы) : 6 канала(ов)
Расположение каналов : Front: L C R, Side: L R, LFE
Частота : 48,0 КГц
Битовая глубина : 16 бит
Метод сжатия : С потерями
Размер потока : 336 Мбайт (22%)
Выравнивание : Разделение по промежуткам
Продолжительность промежутка : 42 мс. (1,00 видеокадр)
Время предзагрузки промежутка : 500 ms
Download / Скачать

Хотите скачать бесплатно? Зарегистрируйтесь на сайте (ссылка на регистрацию). Pirat.ca - самый быстрый торрент трекер в рунете!

Как скачивать  ·   Что такое торрент  ·   Рейтинг и ограничения

vovan200976

Флибустьер

Пост 26-Апр-2015 10:57 (спустя 13 часов)

[Q] 

Заценим !!! Лови бочку
[Профиль]  [ЛС] 

Jek@

Легенда

Пост 26-Апр-2015 11:16 (спустя 18 минут)

[Q] 

Спасибо!!! .
[Профиль]  [ЛС] 

sokol77

Шкипер

128

Пост 26-Апр-2015 12:58 (спустя 1 час 42 минуты)

[Q] 

Люблю Питер, недеюсь фильм не разочарует Спасибо!!!
[Профиль]  [ЛС] 

Пост 06-Июн-2015 09:22 (спустя 1 месяц 9 дней)

Топик был перенесен из форума Новинки (HD|DVD|BD| TV|SAT|PDTV| - Rips) в форум Российские фильмы
aleksey99
 
Показать сообщения:    
Ответить на тему

Текущее время: Сегодня 14:12

Часовой пояс: GMT + 4



Вы не можете начинать темы
Вы не можете отвечать на сообщения
Вы не можете редактировать свои сообщения
Вы не можете удалять свои сообщения
Вы не можете голосовать в опросах
Вы не можете прикреплять файлы к сообщениям
Вы не можете скачивать файлы

▼ Вниз